<?xml version="1.0" standalone="no"?>
<!DOCTYPE svg PUBLIC "-//W3C//DTD SVG 1.1//EN" "http://www.w3.org/Graphics/SVG/1.1/DTD/svg11.dtd" >
<svg xmlns="http://www.w3.org/2000/svg">
<metadata>Generated by IcoMoon</metadata>
<defs>
<font id="cstf" horiz-adv-x="1024">
<font-face units-per-em="1024" ascent="960" descent="-64" />
<missing-glyph horiz-adv-x="1024" />
<glyph unicode="&#x20;" horiz-adv-x="512" d="" />
<glyph unicode="&#xe900;" glyph-name="ab" d="M747.996 932.512c15.196 20.070 43.622 21.565 63.201 3.42 19.599-18.125 23.040-48.988 7.844-69.079l-116.613-152.863-82.309-107.315v-652.595c-3.42-24.494-35.267-24.494-45.056-24.986h-1.495c-8.315 0.492-35.267 1.946-41.165 24.986v693.289l0.84 2.458c0.942 2.396 2.253 4.506 4.076 6.349l94.065 123.474c0 0.492 0.492 0.983 0.983 1.475zM212.977 935.932c19.599 18.145 48.005 16.671 63.201-3.42l210.678-276.337c2.458-2.458 3.912-5.386 4.915-8.806v-696.238c-1.495-21.053-29.901-21.053-42.639-21.545-14.213 0.492-41.165 1.946-45.076 24.003v653.107l-82.33 107.315c0 0.471-0.471 0.471-0.471 0.963l-116.122 151.88c-15.688 20.091-11.756 50.954 7.844 69.079zM100.275 859.501c19.599 18.637 47.514 17.654 62.239-1.454l118.067-153.354c0.983-0.492 1.475-1.475 1.966-2.458l74.957-97.014c10.281-13.23 2.949-38.707-16.65-56.832s-43.622-22.057-53.903-8.806l-81.818 105.82c-0.492 0.983-0.492 1.475-0.983 1.966l-112.189 144.527c-14.705 19.108-11.264 49.48 8.315 67.604zM861.169 858.047c14.705 19.108 42.639 19.599 62.239 1.454 19.599-18.125 23.511-48.497 8.806-67.113l-113.172-146.022c-0.492 0-0.492-0.471-0.492-0.471l-81.818-105.841c-10.301-13.23-34.304-9.298-53.903 8.806-19.599 18.145-26.952 43.622-16.65 56.852l76.923 98.98v0.492z" />
<glyph unicode="&#xe901;" glyph-name="ab-alexa-fluor" d="M723.2 848.457l-25.6 25.6c-12.8 12.8-38.4 12.8-57.6 0l-172.8-172.8-172.8 172.8c-12.8 19.2-38.4 19.2-51.2 0l-32-25.6c-12.8-12.8-12.8-38.4 0-57.6l224-224c12.8-6.4 19.2-12.8 32-12.8s25.6 0 32 12.8l224 224c19.2 12.8 19.2 38.4 0 57.6zM403.2 477.257l-224 224c-12.8 12.8-38.4 12.8-57.6 0l-25.6-25.6c-12.8-12.8-12.8-38.4 0-57.6l211.2-211.2v-377.6c-6.4-19.2 12.8-38.4 32-38.4h32c19.2 0 38.4 19.2 38.4 38.4v416c0 6.4 0 12.8-6.4 19.2 6.4 6.4 6.4 6.4 0 12.8zM556.8 138.057l-6.4 230.4 134.4 83.2 166.4 166.4c12.8 12.8 12.8 38.4 0 57.6l-19.2 25.6c-12.8 12.8-38.4 12.8-57.6 0l-224-224c-12.8-6.4-19.2-19.2-19.2-32v-416c0-19.2 19.2-38.4 38.4-38.4h32c19.2 0 38.4 19.2 38.4 38.4l6.4 51.2-89.6 57.6zM940.8 355.657l-179.2 108.8-179.2-108.8v-198.4l179.2-108.8 179.2 108.8v198.4zM832 144.457l-25.6 70.4h-108.8l-25.6-70.4h-38.4l102.4 256h51.2l102.4-256h-57.6zM710.4 246.857h76.8l-38.4 102.4-38.4-102.4z" />
<glyph unicode="&#xe902;" glyph-name="ab-conjugates" d="M550.4 406.857v0 0 0zM704 848.457l-19.2 19.2c-12.8 12.8-32 12.8-44.8 0l-134.4-134.4-134.4 134.4c-12.8 12.8-32 12.8-44.8 0 0 0 0 0 0 0l-19.2-19.2c-12.8-12.8-12.8-32 0-44.8 0 0 0 0 0 0l172.8-172.8c6.4-6.4 12.8-6.4 25.6-6.4 6.4 0 19.2 0 25.6 6.4l172.8 172.8c12.8 12.8 12.8 32 0 44.8 0 0 0 0 0 0zM454.4 560.457l-172.8 172.8c-12.8 12.8-32 12.8-44.8 0l-25.6-19.2c-12.8-12.8-12.8-32 0-44.8l166.4-166.4v-294.4c0-19.2 12.8-32 32-32h25.6c19.2 0 32 12.8 32 32v320c0 6.4 0 12.8-6.4 12.8 0 6.4 0 12.8-6.4 19.2zM812.8 714.057l-25.6 19.2c-12.8 12.8-32 12.8-44.8 0l-172.8-172.8c-6.4-6.4-19.2-12.8-19.2-25.6v-326.4c0-19.2 12.8-32 32-32h25.6c19.2 0 32 12.8 32 32 0 0 0 0 0 0v294.4l166.4 166.4c12.8 12.8 12.8 32 6.4 44.8zM390.4 170.057l-102.4 38.4-76.8-64 6.4-102.4 102.4-38.4 76.8 64-6.4 102.4zM320 29.257l-76.8 32-6.4 76.8 57.6 44.8 76.8-32 6.4-76.8-57.6-44.8zM601.6 138.057l-83.2-19.2-19.2-76.8 44.8-64 83.2 19.2 19.2 76.8-44.8 64zM614.4 16.457l-64-12.8-38.4 44.8 12.8 57.6 64 12.8 38.4-44.8-12.8-57.6zM787.2 266.057l-83.2-70.4 38.4-83.2h89.6l38.4 83.2-83.2 70.4zM819.2 125.257h-64l-32 64 64 51.2 64-51.2-32-64zM160 157.257l-6.4 89.6v19.2l-76.8 6.4v-19.2l57.6-6.4 6.4-89.6v-19.2l64-19.2v19.2l-44.8 19.2zM505.6 22.857h-51.2l-64 32-12.8-12.8 70.4-38.4h70.4l-12.8 19.2zM851.2 227.657l96 25.6 6.4-19.2-83.2-19.2-19.2 12.8zM768 106.057h-19.2l-19.2-38.4-64 44.8-12.8 6.4-19.2-12.8 12.8-12.8 6.4 6.4 83.2-57.6 32 64z" />
<glyph unicode="&#xe903;" glyph-name="ab-guarantee" d="M475.515 639.326l-234.915 234.915c-7.22 8.13-17.701 13.229-29.373 13.229-9.923 0-18.984-3.684-25.893-9.76l0.043 0.038-25.858-26.078c-6.15-6.865-9.908-15.982-9.908-25.977 0-11.626 5.085-22.063 13.154-29.21l0.042-0.036 220.671-220.671v-547.841c0-0.065-0.001-0.142-0.001-0.219 0-20.211 16.384-36.596 36.596-36.596 0 0 0.001 0 0.001 0h31.994c20.237 0.125 36.596 16.559 36.596 36.815 0 0 0 0.001 0 0.001v0 578.52c0.018 0.46 0.027 1.001 0.027 1.545 0 12.27-5.042 23.362-13.168 31.318l-0.008 0.008zM127.306 768.836c-6.655 6.623-15.833 10.718-25.967 10.718s-19.313-4.095-25.969-10.72l-26.076-26.076c-6.611-6.621-10.7-15.762-10.7-25.858s4.089-19.238 10.7-25.859v0l207.523-207.523c6.631-6.677 15.817-10.81 25.967-10.81s19.336 4.133 25.965 10.808l0.002 0.002 26.078 25.858c6.623 6.655 10.718 15.833 10.718 25.967s-4.095 19.313-10.72 25.969l0.002-0.002zM974.708 742.758l-25.858 26.078c-6.655 6.623-15.833 10.718-25.967 10.718s-19.313-4.095-25.969-10.72l-207.521-207.521c-6.623-6.655-10.718-15.833-10.718-25.967s4.095-19.313 10.72-25.969l25.856-25.856c6.631-6.677 15.817-10.81 25.967-10.81s19.336 4.133 25.965 10.808l207.524 207.524c6.611 6.621 10.7 15.762 10.7 25.858s-4.089 19.238-10.7 25.859v0zM635.485 224.281l-16.435 150.109 21.914-15.997v217.384l220.232 220.671c8.13 7.22 13.229 17.701 13.229 29.373 0 9.923-3.684 18.984-9.76 25.893l0.038-0.043-25.858 26.078c-6.911 5.998-15.995 9.653-25.934 9.653-11.699 0-22.217-5.066-29.476-13.123l-0.031-0.036-234.915-234.915c-8.133-7.963-13.175-19.056-13.175-31.325 0-0.543 0.009-1.085 0.030-1.623l-0.003 0.078v-426.221zM635.485 102.661l-100.146 43.827v-119.649c0.124-20.161 16.434-36.472 36.584-36.596h32.007c7.415 0.216 14.223 2.647 19.832 6.648l-0.109-0.075zM809.48 203.244l10.738 97.955-79.546-58.29-79.546 58.29 10.738-97.955-90.284-39.883 90.284-39.664-10.738-97.955 79.546 58.071 79.546-58.071-10.738 97.955 90.284 39.664-90.284 39.883z" />
<glyph unicode="&#xe904;" glyph-name="ab-pacific-blue" d="M550.4 406.857v0 0 0zM723.2 848.457l-25.6 25.6c-12.8 12.8-38.4 12.8-57.6 0l-172.8-172.8-172.8 172.8c-12.8 19.2-38.4 19.2-51.2 0l-32-25.6c-12.8-12.8-12.8-38.4 0-57.6l224-224c12.8-6.4 19.2-12.8 32-12.8s25.6 0 32 12.8l224 224c19.2 12.8 19.2 38.4 0 57.6zM403.2 477.257l-224 224c-12.8 12.8-38.4 12.8-57.6 0l-25.6-25.6c-12.8-12.8-12.8-38.4 0-57.6l211.2-211.2v-377.6c-6.4-19.2 12.8-38.4 32-38.4h32c19.2 0 38.4 19.2 38.4 38.4v416c0 6.4 0 12.8-6.4 19.2 6.4 6.4 6.4 6.4 0 12.8zM556.8 368.457l134.4 83.2 166.4 166.4c12.8 12.8 12.8 38.4 0 57.6l-25.6 25.6c-12.8 12.8-38.4 12.8-57.6 0l-224-224c-12.8-6.4-19.2-19.2-19.2-32v-416c0-19.2 19.2-38.4 38.4-38.4h32c19.2 0 38.4 19.2 38.4 38.4l6.4 51.2-89.6 51.2v236.8zM761.6 464.457l-179.2-108.8v-198.4l179.2-108.8 179.2 108.8v198.4l-179.2 108.8zM832 240.457c-19.2-12.8-44.8-25.6-70.4-25.6h-19.2v-102.4h-51.2v256h89.6c19.2 0 38.4 0 51.2-6.4s19.2-12.8 25.6-25.6c6.4-12.8 6.4-25.6 6.4-38.4-6.4-19.2-12.8-44.8-32-57.6zM787.2 330.057c-6.4 6.4-19.2 6.4-25.6 6.4h-19.2v-83.2h12.8c12.8 0 32 6.4 44.8 12.8 6.4 6.4 12.8 19.2 12.8 32 0 6.4 0 12.8-6.4 19.2s-12.8 12.8-19.2 12.8z" />
<glyph unicode="&#xe905;" glyph-name="ab-reprogramming" d="M620.8 611.657l-12.8 12.8c-6.4 6.4-12.8 6.4-19.2 0l-76.8-70.4-70.4 70.4c-6.4 6.4-19.2 6.4-25.6 0l-12.8-12.8c-6.4-6.4-6.4-19.2 0-25.6l96-96c6.4 0 6.4-6.4 12.8-6.4s12.8 0 12.8 6.4l96 96c6.4 12.8 6.4 19.2 0 25.6zM390.4 662.857c6.4 6.4 6.4 19.2 0 25.6l-12.8 12.8c-6.4 6.4-19.2 6.4-25.6 0l-96-96c-6.4 0-12.8-6.4-12.8-12.8v-179.2c0-6.4 6.4-19.2 19.2-19.2h12.8c6.4 0 19.2 6.4 19.2 19.2v160c0 0 0 0 0 0l96 89.6zM339.2 765.257l-12.8 12.8c-6.4 6.4-19.2 6.4-25.6 0l-70.4-76.8-76.8 76.8c-6.4 6.4-19.2 6.4-25.6 0l-6.4-12.8c0 0 0 0 0 0-6.4-6.4-6.4-19.2 0-25.6l96-96c6.4-6.4 6.4-6.4 12.8-6.4s12.8 0 12.8 6.4l96 96c6.4 6.4 6.4 19.2 0 25.6zM480 458.057l-89.6 96c-6.4 6.4-19.2 6.4-25.6 0l-12.8-12.8c-6.4-6.4-6.4-19.2 0-25.6 0 0 0 0 0 0l96-89.6v-153.6c0-12.8 6.4-25.6 19.2-25.6h12.8c6.4 0 19.2 6.4 19.2 19.2v179.2c0 6.4-6.4 12.8-19.2 12.8zM198.4 605.257l-89.6 96c-6.4 6.4-19.2 6.4-25.6 0l-12.8-12.8c0 0 0 0 0 0-6.4-6.4-6.4-19.2 0-25.6l96-89.6v-160c0-6.4 6.4-19.2 19.2-19.2h6.4c6.4 0 19.2 6.4 19.2 19.2v179.2c0 6.4-6.4 12.8-12.8 12.8zM672 541.257l-12.8 12.8c-6.4 6.4-19.2 6.4-25.6 0l-89.6-96c-6.4 0-12.8-6.4-12.8-19.2v-179.2c0-6.4 6.4-19.2 12.8-19.2 0 0 0 0 0 0h12.8c6.4 0 19.2 6.4 12.8 19.2v160l96 96c12.8 6.4 12.8 19.2 6.4 25.6zM563.2 272.457h-19.2v76.8h12.8v-76.8zM563.2 368.457h-19.2v51.2h12.8v-51.2zM953.6 387.657l-12.8 12.8c-6.4 6.4-19.2 6.4-25.6 0l-96-96c-6.4 0-12.8-6.4-12.8-12.8v-179.2c0-6.4 6.4-19.2 19.2-19.2h12.8c6.4 0 19.2 6.4 19.2 19.2v153.6c0 0 0 0 0 0l96 96c6.4 6.4 6.4 19.2 0 25.6zM902.4 464.457l-12.8 12.8c-6.4 6.4-19.2 6.4-25.6 0l-76.8-76.8-70.4 70.4c-6.4 6.4-19.2 6.4-25.6 0l-12.8-12.8c-6.4-6.4-6.4-19.2 0-25.6l96-96c6.4-6.4 6.4-6.4 12.8-6.4s6.4 0 12.8 6.4l102.4 102.4c6.4 6.4 6.4 19.2 0 25.6zM768 304.457l-96 96c-6.4 6.4-19.2 6.4-25.6 0l-12.8-12.8c-6.4-6.4-6.4-19.2 0-25.6l96-96v-153.6c0-6.4 6.4-19.2 19.2-19.2h12.8c6.4 0 19.2 6.4 19.2 19.2v179.2c0 6.4-6.4 12.8-12.8 12.8z" />
<glyph unicode="&#xe906;" glyph-name="cell-caspase-signaling" d="M659.544 797.808c0 84.783-142.039 153.049-318.211 153.049s-319.312-68.267-319.312-153.049 142.039-153.049 318.211-153.049 319.312 69.368 319.312 153.049zM1000.877 84.311c0-84.527-142.961-153.049-319.312-153.049s-319.312 68.523-319.312 153.049c0 84.527 142.961 153.049 319.312 153.049s319.312-68.523 319.312-153.049zM430.581 569.109l67.91 31.522 132.576-285.621-67.91-31.522-132.576 285.621z" />
<glyph unicode="&#xe907;" glyph-name="cell-cd-markers" d="M550.4 406.857v0 0 0zM556.8 406.857c0-57.6-44.8-102.4-102.4-102.4s-102.4 44.8-102.4 102.4c0 57.6 44.8 102.4 102.4 102.4v0c57.6 6.4 102.4-44.8 102.4-102.4zM953.6 458.057c-6.4 12.8-19.2 25.6-38.4 19.2-12.8 0-19.2-12.8-19.2-25.6h-108.8l-51.2 38.4c-12.8 70.4-57.6 128-115.2 160l-12.8 64 32 102.4c19.2 0 32 12.8 25.6 32 0 12.8-12.8 25.6-25.6 25.6s-32-12.8-32-25.6c0-12.8 6.4-25.6 19.2-25.6l-32-102.4-51.2-38.4c-12.8 0-25.6 0-38.4 0-38.4 0-76.8-12.8-115.2-32l-64 12.8-83.2 76.8c6.4 12.8 0 32-12.8 38.4 0 0 0 0 0 0-12.8 6.4-32 0-38.4-12.8 0 0 0 0 0 0-6.4-12.8 0-32 12.8-38.4s19.2-6.4 32 6.4l83.2-76.8 6.4-57.6c-25.6-25.6-44.8-57.6-51.2-96l-51.2-32h-102.4c0 19.2-19.2 25.6-32 25.6-19.2 0-25.6-19.2-25.6-32 0-19.2 12.8-32 32-25.6 0 0 6.4 0 6.4 0 12.8 6.4 19.2 12.8 19.2 25.6h108.8l44.8-32c6.4-70.4 38.4-128 96-166.4v0l12.8-70.4-38.4-96c-19.2 0-32-12.8-32-25.6s12.8-32 25.6-32c0 0 0 0 0 0 12.8 0 25.6 6.4 25.6 19.2s-6.4 19.2-12.8 25.6l32 96 57.6 32c19.2-6.4 44.8-6.4 64-6.4s44.8 0 64 6.4l57.6-32 51.2-89.6c-12.8-12.8-6.4-32 6.4-38.4s25.6-6.4 38.4 0c12.8 12.8 12.8 32 0 38.4-6.4 6.4-19.2 12.8-32 6.4l-51.2 96 6.4 64c51.2 32 83.2 89.6 96 147.2l51.2 32h102.4c6.4-12.8 25.6-19.2 38.4-12.8 19.2 0 25.6 19.2 19.2 32zM595.2 707.657l12.8-44.8c-19.2 6.4-32 12.8-51.2 12.8l38.4 32zM332.8 656.457l44.8-12.8c-12.8-6.4-25.6-19.2-38.4-32l-6.4 44.8zM236.8 464.457l32 19.2c0-12.8 0-25.6 0-38.4v-6.4l-32 25.6zM384 195.657l-6.4 51.2c19.2-12.8 32-19.2 51.2-25.6l-44.8-25.6zM620.8 195.657l-44.8 25.6c19.2 6.4 32 12.8 51.2 25.6l-6.4-51.2zM505.6 227.657c-121.6 0-217.6 96-217.6 217.6s96 217.6 217.6 217.6 217.6-96 217.6-217.6c0 0 0 0 0 0 0-121.6-96-217.6-217.6-217.6 0 0 0 0 0 0v0zM742.4 413.257c0 12.8 0 19.2 0 32 0 6.4 0 19.2 0 25.6l38.4-32-38.4-25.6z" />
<glyph unicode="&#xe908;" glyph-name="cell-chip" d="M96.356 818.448h862.293v-734.293h-862.293zM303.751 634.413v-103.787h53.333v-105.422h26.916v129.067h53.333v-206.436h23.858v49.209h53.333v-103.964h27.022v-24.889h26.524v208.569h50.524v-182.116h27.022v128.924h53.333v-210.311h26.56v-22.827h76.373c0.391 7.964 0.747 15.218 1.102 22.222h25.458c0.391-8.036 0.711-14.969 1.102-23.396h52.942v-25.209h26.524v25.92h25.28v601.636h-811.271v-681.138h76.658v26.169h26.524v77.724h27.022v420.053z" />
<glyph unicode="&#xe909;" glyph-name="cell-death" d="M404.48 859.721c12.288-9.216 25.6 11.264 46.080 8.192 39.936-83.968 70.656-177.152 109.568-261.12-52.224-28.672-117.76-44.032-168.96-73.728-15.36 6.144-13.312 29.696-22.528 40.96-106.496-13.312-84.992-143.36-36.864-205.824-38.912-12.288-84.992-18.432-105.472-50.176-92.16 112.64-61.44 347.136 96.256 361.472-8.192 44.032-31.744 72.704-40.96 114.688 0 18.432 24.576 12.288 31.744 22.528 4.096 14.336 95.232 55.296 91.136 43.008zM413.696 474.697c61.44 18.432 110.592 48.128 174.080 64.512 1.024-20.48 11.264-30.72 18.432-46.080-4.096-96.256-184.32-139.264-192.512-18.432zM830.464-1.463c-46.080 10.24-110.592 2.048-164.864 4.096 47.104 37.888 149.504 26.624 155.648 96.256 2.048 25.6-13.312 57.344-36.864 64.512-99.328 28.672-286.72-175.104-357.376-40.96 7.168 28.672 22.528 50.176 27.648 81.92 89.088 32.768 176.128 69.632 274.432 109.568 27.648 11.264 69.632 21.504 64.512 59.392-11.264 71.68-140.288-9.216-174.080-22.528-70.656-28.672-125.952-45.056-183.296-72.704-34.816 12.288-47.104 35.84-77.824 40.96-162.816 27.648-195.584-215.040-40.96-233.472 5.12-36.864 45.056-62.464 50.176-81.92-75.776-2.048-178.176 22.528-155.648-77.824h636.928c2.048 32.768-2.048 58.368-18.432 72.704zM289.792 200.265c-1.024 29.696 29.696 52.224 68.608 36.864 56.32-67.584-65.536-103.424-68.608-36.864zM313.344 817.737c4.096 13.312-6.144 12.288-4.096 22.528-13.312 9.216-26.624-13.312-50.176-9.216-4.096 17.408-10.24 32.768-19.456 46.080 45.056 34.816 106.496 52.224 164.864 73.728 19.456-5.12 12.288-35.84 27.648-46.080-3.072-15.36-22.528-14.336-31.744-22.528-2.048-11.264 8.192-10.24 4.096-22.528l-91.136-41.984z" />
<glyph unicode="&#xe90a;" glyph-name="cell-extracts" d="M812.8 464.457c70.4 19.2 121.6 83.2 121.6 153.6v0c0 89.6-70.4 160-160 160-32 0-64-12.8-89.6-32-6.4 83.2-76.8 153.6-160 153.6-89.6 0-160-70.4-160-153.6-32 19.2-64 32-96 32 0 0 0 0 0 0-89.6 0-160-70.4-160-160 0-70.4 44.8-134.4 115.2-153.6-64-19.2-108.8-83.2-108.8-153.6 0-89.6 70.4-160 160-160 38.4 0 70.4 12.8 96 32-6.4-19.2-6.4-32-6.4-51.2 0-89.6 70.4-160 160-160s160 70.4 160 160c0 19.2-6.4 38.4-6.4 51.2 25.6-19.2 64-38.4 102.4-38.4 89.6 0 160 70.4 160 160-6.4 83.2-57.6 147.2-128 160zM403.2 394.057c0 19.2-6.4 32-6.4 44.8 0 70.4 57.6 121.6 121.6 121.6 70.4 0 121.6-51.2 121.6-121.6s-57.6-121.6-121.6-121.6c-38.4 0-76.8 19.2-102.4 51.2 0 12.8-6.4 19.2-12.8 25.6zM320 464.457c19.2 6.4 38.4 12.8 51.2 32-6.4-19.2-12.8-32-12.8-51.2-12.8 6.4-25.6 12.8-38.4 19.2zM473.6 592.457c-19.2-6.4-38.4-19.2-57.6-32 6.4 12.8 6.4 32 12.8 51.2 12.8-6.4 25.6-12.8 44.8-19.2zM614.4 611.657c0-19.2 6.4-32 12.8-51.2-19.2 12.8-38.4 25.6-57.6 32 12.8 6.4 25.6 12.8 44.8 19.2zM428.8 304.457c12.8-6.4 25.6-12.8 44.8-19.2-19.2-6.4-38.4-12.8-51.2-25.6 6.4 12.8 6.4 32 6.4 44.8zM614.4 304.457c0-19.2 6.4-32 6.4-51.2-12.8 12.8-32 19.2-51.2 25.6 12.8 12.8 32 19.2 44.8 25.6zM678.4 445.257c0 19.2-6.4 38.4-12.8 57.6 19.2-12.8 38.4-25.6 64-32-12.8-6.4-32-19.2-51.2-25.6zM774.4 746.057c70.4 0 121.6-57.6 121.6-121.6v0c0-70.4-57.6-121.6-121.6-121.6s-121.6 57.6-121.6 121.6c0 12.8 0 25.6 6.4 32 6.4 12.8 12.8 25.6 19.2 38.4 12.8 32 51.2 51.2 96 51.2zM435.2 829.257c25.6 25.6 51.2 38.4 89.6 38.4 70.4 0 121.6-57.6 121.6-121.6v0c0-12.8 0-25.6-6.4-32-12.8-12.8-12.8-25.6-19.2-38.4-6.4-6.4-6.4-12.8-12.8-19.2-25.6-19.2-57.6-32-89.6-32 0 0 0 0 0 0-44.8 0-83.2 25.6-102.4 57.6 0 6.4-6.4 12.8-12.8 19.2 0 12.8-6.4 25.6-6.4 44.8 0 32 12.8 64 38.4 83.2zM147.2 618.057c0 70.4 57.6 121.6 121.6 121.6 0 0 0 0 0 0 44.8 0 83.2-25.6 102.4-57.6 0-6.4 6.4-12.8 12.8-19.2 0-12.8 6.4-32 6.4-44.8v0c0-32-12.8-64-38.4-89.6-19.2-19.2-51.2-32-83.2-32 0 0 0 0 0 0-70.4 0-121.6 51.2-121.6 121.6zM268.8 189.257c-70.4 0-121.6 57.6-121.6 121.6s57.6 121.6 121.6 121.6c44.8 0 76.8-19.2 102.4-51.2 6.4-12.8 6.4-19.2 12.8-25.6 6.4-12.8 6.4-32 6.4-44.8 0-70.4-51.2-121.6-121.6-121.6zM518.4 10.057c-70.4 0-121.6 57.6-121.6 121.6 0 70.4 57.6 121.6 121.6 121.6 0 0 0 0 0 0 32 0 64-12.8 89.6-38.4s38.4-51.2 38.4-89.6c0-57.6-57.6-115.2-128-115.2zM774.4 189.257c-70.4 0-121.6 57.6-121.6 121.6s57.6 121.6 121.6 121.6 121.6-51.2 121.6-121.6-57.6-121.6-121.6-121.6z" />
<glyph unicode="&#xe90b;" glyph-name="cell-flow" d="M51.2 835.657v-716.8c0 0 0 0 0 0v0-76.8h928v793.6h-928zM940.8 797.257v-620.8c0 0 0 0-6.4 0v12.8c-12.8 0-12.8 12.8-19.2 32 0 12.8-6.4 32-19.2 44.8v0h-12.8c-12.8 0-19.2-6.4-25.6-6.4s-12.8-6.4-12.8-6.4c0 0 0 0-6.4 12.8s-6.4 32 0 51.2c0 25.6 6.4 57.6-12.8 83.2 0 12.8 0 44.8 0 70.4 0 38.4 0 89.6 0 128 0 32-6.4 57.6-25.6 83.2-12.8 6.4-19.2 12.8-25.6 12.8-6.4 6.4-12.8 12.8-19.2 19.2l-25.6 44.8-12.8-51.2c0-12.8-6.4-32-19.2-38.4 0 0 0 0 0 6.4 0 0 0 6.4-6.4 6.4l-19.2 44.8-12.8-44.8c-6.4-19.2-6.4-38.4-6.4-57.6 0-38.4-6.4-76.8-25.6-96 0 6.4 0 6.4 0 12.8 0 0 0 0 0 0h-38.4c0 0 0 0 0 0 0-70.4-38.4-140.8-89.6-192-6.4-12.8-19.2-19.2-32-12.8-19.2 0-32 19.2-32 32 0 6.4 0 6.4 0 12.8l-38.4 6.4c0-6.4 0-6.4 0-12.8 0-12.8-12.8-25.6-19.2-32 0-12.8-6.4-19.2-12.8-25.6-12.8-32-38.4-57.6-57.6-83.2 0 6.4-6.4 6.4-6.4 12.8-6.4 19.2-6.4 38.4-6.4 57.6s0 38.4-6.4 51.2v32c-6.4 25.6-6.4 51.2-12.8 76.8-12.8 64-25.6 134.4-25.6 204.8 0 19.2 0 38.4 0 57.6 0 6.4 0 12.8 0 19.2h-38.4c0-25.6 0-51.2 0-76.8 0-6.4 0-6.4 0-12.8l-19.2 32v-57.6c0-44.8-6.4-96-19.2-140.8l-25.6-12.8c-19.2-19.2-19.2-44.8-19.2-64-6.4-25.6-12.8-51.2-12.8-76.8-6.4-25.6-6.4-51.2-12.8-76.8 0-25.6-6.4-51.2-12.8-70.4v608h851.2zM800 253.257c19.2-44.8 51.2-38.4 70.4-32 0 0 6.4 0 6.4 0 0-6.4 0-12.8 6.4-12.8 0-12.8 6.4-25.6 12.8-38.4-6.4 0-6.4 0-12.8 0-32-6.4-70.4 0-102.4 6.4-25.6 6.4-51.2 0-70.4-12.8-12.8-6.4-19.2 0-25.6 6.4s-19.2 19.2-44.8 25.6c-19.2 0-32-6.4-51.2-6.4-19.2-6.4-32-12.8-38.4 0-12.8 12.8-32 12.8-76.8 6.4-25.6 0-57.6 0-76.8 0l-19.2 6.4c-12.8 0-25.6 6.4-38.4 12.8 25.6 25.6 44.8 51.2 64 83.2 0 6.4 6.4 12.8 12.8 19.2 0 0 0 0 0 0 12.8-12.8 25.6-25.6 44.8-25.6 25.6-6.4 51.2 0 64 19.2 44.8 38.4 76.8 96 96 153.6l6.4-6.4 12.8 6.4c44.8 38.4 51.2 102.4 51.2 153.6 0 0 0 6.4 0 6.4s0 0 6.4 0l12.8-6.4 6.4 12.8c12.8 12.8 19.2 25.6 32 44.8 6.4-6.4 6.4-6.4 12.8-12.8 12.8-19.2 19.2-38.4 19.2-57.6 0-38.4 0-83.2 0-121.6 0-76.8 0-89.6 12.8-96 6.4-12.8 6.4-32 6.4-51.2-6.4-38.4-12.8-64 0-83.2zM275.2 214.857c-12.8-6.4-25.6-19.2-38.4-25.6-38.4-19.2-96-44.8-128-44.8 19.2 38.4 25.6 76.8 25.6 115.2 6.4 25.6 6.4 51.2 12.8 76.8s6.4 51.2 12.8 83.2c0 0 0 0 0 0l12.8-12.8 6.4 25.6c12.8 44.8 25.6 83.2 32 128 6.4-32 12.8-70.4 19.2-102.4 6.4-25.6 6.4-44.8 12.8-70.4l12.8-32c0-12.8 0-25.6 0-44.8 0-25.6 0-44.8 6.4-70.4 6.4-12.8 6.4-19.2 12.8-25.6zM83.2 80.457v19.2c6.4 0 6.4 0 12.8 0 70.4 0 160 51.2 160 51.2 19.2 12.8 32 19.2 44.8 32 19.2-12.8 44.8-12.8 64-19.2l19.2-6.4c25.6-6.4 57.6-6.4 89.6 0 19.2 0 44.8 0 51.2 0 32-25.6 57.6-12.8 76.8-6.4 12.8 6.4 19.2 6.4 32 6.4 6.4 0 12.8-6.4 19.2-12.8 12.8-12.8 32-32 70.4-19.2 19.2 6.4 38.4 12.8 51.2 6.4 38.4-12.8 76.8-12.8 115.2-6.4 6.4 0 12.8 0 19.2 0 12.8 0 19.2 0 32 6.4v-57.6h-857.6z" />
<glyph unicode="&#xe90c;" glyph-name="cell-if" d="M64 816.457v-755.2h896v755.2h-896zM582.4 662.857h115.2v-57.6h-115.2v57.6zM108.8 298.057h115.2v-57.6h-115.2v57.6zM275.2 131.657h-115.2v57.6h115.2v-57.6zM275.2 496.457h-115.2v57.6h115.2v-57.6zM499.2 240.457h-115.2v57.6h115.2v-57.6zM499.2 522.057h-115.2v57.6h115.2v-57.6zM640 131.657h-115.2v57.6h115.2v-57.6zM640 413.257h-115.2v51.2h115.2v-51.2zM640 522.057h-115.2v57.6h115.2v-57.6zM691.2 323.657h115.2v-57.6h-115.2v57.6zM864 131.657h-115.2v57.6h115.2v-57.6zM864 413.257h-115.2v51.2h115.2v-51.2zM889.6 605.257h-115.2v57.6h115.2v-57.6zM915.2 720.457h-115.2v51.2h115.2v-51.2z" />
<glyph unicode="&#xe90d;" glyph-name="cell-ihc" d="M44.8 835.657v-793.6h934.4v793.6h-934.4zM550.4 106.057c-19.2 19.2-25.6 57.6-12.8 108.8 19.2 51.2 57.6 108.8 102.4 160 70.4 70.4 153.6 108.8 211.2 108.8 25.6 0 44.8-6.4 57.6-19.2s19.2-32 19.2-57.6c0-64-44.8-140.8-108.8-211.2v0c-96-96-217.6-134.4-268.8-89.6zM576 438.857c-19.2 19.2-57.6 25.6-102.4 12.8-38.4-12.8-76.8-38.4-108.8-70.4 0 0 0 0 0 0 6.4 25.6 12.8 51.2 6.4 76.8 51.2 6.4 115.2 38.4 166.4 96v0c89.6 89.6 121.6 198.4 76.8 256h172.8c-32-12.8-57.6-38.4-83.2-64-83.2-89.6-115.2-192-64-236.8 12.8-12.8 38.4-25.6 64-25.6 0 0 0 0 0 0s6.4 0 6.4 0c-32-19.2-64-44.8-89.6-70.4-12.8-19.2-19.2-25.6-25.6-32 0 19.2-6.4 38.4-19.2 57.6zM556.8 374.857c0-38.4-25.6-83.2-64-121.6v0c-64-64-134.4-83.2-160-57.6-6.4 6.4-12.8 19.2-12.8 32 0 38.4 25.6 89.6 64 128 32 32 64 51.2 96 64 19.2 0 32 0 38.4 0 12.8 0 25.6-6.4 32-12.8s12.8-19.2 6.4-32zM371.2 707.657c51.2 51.2 115.2 83.2 160 83.2 0 0 0 0 0 0 19.2 0 32-6.4 44.8-12.8 32-32 12.8-121.6-70.4-204.8-51.2-51.2-115.2-89.6-160-89.6 0 0 0 0 0 0s0 0 0 0c-12.8 12.8-32 19.2-44.8 19.2-32 32-12.8 121.6 70.4 204.8zM288 464.457c12.8-6.4 19.2-12.8 32-12.8 12.8-12.8 12.8-32 6.4-57.6-12.8-32-32-64-64-96v0c-38.4-38.4-89.6-64-128-64-12.8 0-25.6 0-32 12.8-6.4 6.4-12.8 19.2-12.8 32 0 38.4 25.6 89.6 64 128 57.6 38.4 102.4 57.6 134.4 57.6zM844.8 586.057c-44.8-44.8-102.4-76.8-147.2-76.8 0 0 0 0 0 0-12.8 0-25.6 6.4-38.4 12.8-25.6 32-6.4 108.8 64 185.6 44.8 44.8 102.4 76.8 147.2 76.8 0 0 0 0 0 0 19.2 0 32-6.4 38.4-12.8 32-32 12.8-115.2-64-185.6zM819.2 515.657c19.2 12.8 38.4 25.6 51.2 44.8v0c32 32 51.2 64 70.4 96v-172.8c0 0-6.4 6.4-6.4 6.4-25.6 25.6-70.4 32-115.2 25.6zM940.8 790.857c0 6.4 0 6.4 0 0v0 0zM428.8 797.257c-25.6-12.8-57.6-38.4-83.2-64-83.2-83.2-115.2-179.2-89.6-236.8-38.4-6.4-83.2-32-121.6-70.4-19.2-25.6-38.4-51.2-51.2-70.4v448h345.6zM83.2 208.457c12.8-12.8 32-19.2 57.6-19.2 0 0 0 0 0 0 51.2 0 108.8 32 153.6 76.8 0 0 0 0 0 0-6.4-19.2-12.8-32-12.8-51.2 0-25.6 6.4-44.8 19.2-57.6s32-19.2 57.6-19.2c38.4 0 89.6 19.2 134.4 57.6-12.8-51.2-6.4-96 25.6-128h-435.2v140.8zM723.2 80.457c38.4 19.2 83.2 51.2 121.6 89.6 44.8 38.4 76.8 89.6 96 134.4v-224h-217.6z" />
<glyph unicode="&#xe90e;" glyph-name="cell-kinomeview" d="M524.8 445.257v0 0 0zM313.6 861.257c57.6-38.4 70.4-108.8 96-172.8 44.8-89.6 76.8-185.6 96-288 25.6-153.6 115.2-268.8 166.4-409.6 6.4-12.8 19.2-6.4 19.2 6.4-32 70.4-76.8 140.8-108.8 211.2-32 96-64 198.4-83.2 300.8-25.6 83.2-51.2 153.6-83.2 224-25.6 57.6-38.4 102.4-89.6 140.8-12.8 6.4-19.2-6.4-12.8-12.8zM518.4 432.457c19.2 51.2 38.4 96 57.6 147.2 38.4 70.4 70.4 134.4 108.8 204.8 6.4 6.4-6.4 12.8-12.8 6.4-32-57.6-64-121.6-96-179.2s-38.4-121.6-70.4-172.8c-6.4-6.4 6.4-12.8 12.8-6.4zM537.6 470.857c44.8 6.4 96 12.8 140.8 25.6 57.6 32 121.6 51.2 185.6 64 6.4 0 6.4 12.8 0 12.8-51.2-6.4-102.4-19.2-147.2-51.2-57.6-19.2-121.6-32-179.2-38.4-6.4 0-6.4-19.2 0-12.8zM524.8 362.057c38.4-38.4 89.6-64 140.8-76.8 32-12.8 70.4-25.6 102.4-44.8 38.4-19.2 76.8-44.8 108.8-70.4 6.4-6.4 12.8 6.4 6.4 12.8-38.4 32-83.2 57.6-128 83.2-70.4 32-166.4 51.2-224 108.8-6.4 0-12.8-6.4-6.4-12.8zM441.6 630.857c-44.8 12.8-83.2 19.2-128 25.6-32 12.8-64 25.6-96 32-6.4 0-12.8-12.8 0-12.8 38.4-6.4 76.8-19.2 108.8-32 38.4-12.8 76.8-19.2 108.8-25.6 12.8 0 19.2 12.8 6.4 12.8zM499.2 438.857c-51.2-6.4-108.8-12.8-160-12.8s-108.8-12.8-153.6-32c-12.8 0 0-12.8 6.4-12.8 57.6 19.2 115.2 32 172.8 32 44.8 0 89.6 0 140.8 12.8 6.4 0 0 12.8-6.4 12.8zM544 246.857c-6.4-38.4-12.8-70.4-19.2-108.8 0-44.8-6.4-89.6-19.2-134.4 0-6.4 6.4-12.8 12.8-6.4 6.4 38.4 12.8 70.4 12.8 108.8 6.4 51.2 19.2 96 25.6 140.8 6.4 6.4-6.4 6.4-12.8 0zM627.2 298.057c12.8-76.8 102.4-115.2 134.4-185.6 0-6.4 6.4-6.4 6.4 0 0 0 6.4 6.4 6.4 6.4-12.8 32-38.4 57.6-57.6 76.8-32 32-57.6 64-76.8 108.8 0 6.4 0 6.4-6.4 6.4s-6.4-6.4-6.4-12.8c0 0 0 0 0 0zM467.2 605.257c6.4 32 12.8 57.6 25.6 83.2 6.4 25.6 12.8 51.2 12.8 76.8 0 6.4-12.8 12.8-12.8 0 0-32-6.4-64-19.2-89.6-12.8-19.2-19.2-44.8-19.2-70.4 0-6.4 12.8-6.4 12.8 0zM441.6 662.857c12.8 25.6 12.8 57.6 12.8 83.2-6.4 38.4-32 89.6-6.4 128 6.4 6.4-6.4 12.8-12.8 6.4-12.8-19.2-19.2-44.8-12.8-64 6.4-51.2 25.6-96 6.4-147.2 0-6.4 0-6.4 6.4-6.4 0-6.4 6.4 0 6.4 0zM441.6 803.657c6.4 12.8 12.8 19.2 19.2 32 6.4 6.4 0 12.8-6.4 12.8-12.8-12.8-19.2-25.6-25.6-38.4-6.4-6.4 6.4-12.8 12.8-6.4zM499.2 714.057l32 19.2c6.4 6.4 0 12.8-6.4 12.8l-25.6-19.2c-12.8-6.4 0-12.8 0-12.8zM544 515.657c32 32 64 57.6 96 76.8 32 32 64 64 102.4 96 0 6.4 0 6.4 0 12.8 0 0-6.4 0-6.4 0-32-25.6-64-64-102.4-89.6-38.4-32-70.4-57.6-102.4-89.6 0 0 0-6.4 0-6.4 6.4-6.4 12.8-6.4 12.8 0zM608 573.257c12.8 25.6 25.6 44.8 38.4 64s25.6 38.4 44.8 51.2c6.4 6.4 0 19.2-6.4 12.8-19.2-19.2-32-38.4-44.8-57.6-19.2-19.2-32-38.4-38.4-64 0-6.4 0-6.4 6.4-6.4-6.4 0 0 0 0 0v0zM576 483.657c57.6 44.8 115.2 83.2 172.8 121.6 6.4 6.4 0 12.8-6.4 12.8-57.6-38.4-115.2-76.8-172.8-121.6-6.4-6.4 0-19.2 6.4-12.8zM684.8 496.457c19.2 0 44.8-6.4 64-6.4s44.8 6.4 64 6.4c6.4 0 6.4 12.8 0 12.8-19.2 0-44.8-6.4-64-6.4s-38.4 6.4-57.6 6.4c0 0-6.4 0-6.4-12.8 6.4 0 6.4 0 6.4 0zM620.8 477.257c25.6 0 57.6 0 83.2 0 25.6-6.4 57.6-6.4 83.2-19.2 6.4 0 6.4 12.8 0 12.8-25.6 6.4-51.2 12.8-70.4 19.2-32 0-64 0-89.6 0-19.2 0-19.2-12.8-6.4-12.8zM601.6 483.657c19.2-6.4 38.4-12.8 57.6-12.8 25.6 0 57.6-6.4 83.2-19.2 6.4-6.4 12.8 6.4 6.4 12.8-19.2 6.4-38.4 12.8-57.6 19.2-32 6.4-57.6 12.8-89.6 19.2-6.4-6.4-6.4-19.2 0-19.2zM531.2 445.257c38.4 6.4 83.2 0 121.6-19.2 38.4-12.8 76.8-19.2 121.6-19.2 6.4 0 6.4 12.8 0 12.8-51.2 0-102.4 12.8-153.6 32-32 12.8-64 12.8-96 6.4-6.4 0 0-12.8 6.4-12.8zM608 438.857c12.8-19.2 38.4-32 57.6-32 32-12.8 57.6-25.6 83.2-38.4 6.4-6.4 12.8 6.4 6.4 12.8-19.2 12.8-38.4 25.6-64 32s-64 12.8-76.8 32c0 6.4-12.8 0-6.4-6.4zM518.4 438.857c38.4-32 89.6-32 128-64 6.4-6.4 19.2 6.4 12.8 6.4-12.8 12.8-32 25.6-51.2 32-32 12.8-57.6 25.6-83.2 38.4-6.4 0-6.4 0-12.8 0 6.4-6.4 6.4-12.8 6.4-12.8v0zM518.4 368.457c57.6-32 140.8-25.6 211.2-38.4 6.4 0 12.8 12.8 0 12.8-32 6.4-64 12.8-102.4 12.8-32 0-70.4 6.4-102.4 19.2-6.4 12.8-12.8 0-6.4-6.4zM652.8 285.257c25.6 0 51.2 0 76.8 6.4 32 12.8 70.4 19.2 102.4 19.2 6.4 0 6.4 12.8 0 12.8-25.6 6.4-51.2 0-76.8-6.4-32-6.4-70.4-12.8-102.4-12.8-6.4 0-6.4-12.8 0-19.2zM729.6 259.657c19.2 6.4 32 6.4 51.2 12.8 19.2 0 44.8 0 64 0 6.4 0 6.4 12.8 0 12.8-19.2 0-38.4 0-57.6 0s-38.4-6.4-57.6-12.8c-6.4 0-6.4-6.4-6.4-6.4-6.4-6.4 0-6.4 6.4-6.4zM595.2 157.257c32-25.6 70.4-19.2 102.4-44.8 6.4-6.4 12.8 0 12.8 6.4-25.6 25.6-70.4 25.6-102.4 51.2-12.8 6.4-19.2-6.4-12.8-12.8zM614.4 125.257c38.4-12.8 70.4-44.8 108.8-57.6 6.4 0 12.8 12.8 6.4 12.8-38.4 12.8-70.4 38.4-108.8 57.6-6.4 0-6.4 0-6.4-12.8 0 6.4 0 0 0 0zM588.8 170.057c-12.8-25.6-19.2-64-12.8-96 0-6.4 12.8 0 12.8 6.4-6.4 25.6 0 57.6 12.8 76.8 0 12.8-6.4 19.2-12.8 12.8zM537.6 259.657c-25.6-25.6-51.2-51.2-83.2-64-32-19.2-57.6-44.8-76.8-76.8-6.4-6.4 6.4-12.8 12.8-6.4 12.8 19.2 19.2 32 38.4 44.8s38.4 25.6 57.6 38.4c25.6 12.8 51.2 32 70.4 51.2 0 6.4-12.8 12.8-19.2 12.8zM454.4 189.257c-19.2-19.2-32-38.4-38.4-64 0-6.4 12.8-6.4 12.8 0 6.4 19.2 19.2 38.4 32 57.6 0 0 0 6.4 0 6.4 0 6.4-6.4 6.4-6.4 0v0zM518.4 323.657c-76.8-38.4-153.6-64-230.4-102.4-6.4 0-6.4-6.4-6.4-6.4 0-6.4 6.4-6.4 6.4-6.4s0 0 6.4 0c76.8 38.4 153.6 70.4 230.4 102.4 6.4 6.4 0 12.8-6.4 12.8zM524.8 323.657c-25.6-6.4-38.4-32-64-44.8s-51.2-25.6-70.4-44.8c-6.4-6.4 6.4-12.8 12.8-6.4 19.2 19.2 44.8 32 70.4 44.8 19.2 12.8 32 32 51.2 38.4 12.8 0 6.4 12.8 0 12.8zM537.6 272.457c-12.8-12.8-38.4-6.4-51.2-12.8s-25.6-12.8-32-25.6c-6.4-6.4 6.4-12.8 12.8-6.4 19.2 32 57.6 12.8 83.2 32 0 6.4-6.4 19.2-12.8 12.8zM512 387.657c-25.6-12.8-57.6-19.2-83.2-19.2s-44.8-6.4-64-25.6c-6.4-6.4 0-19.2 6.4-12.8 25.6 19.2 51.2 25.6 76.8 25.6s44.8 6.4 70.4 19.2c6.4 6.4 0 19.2-6.4 12.8zM512 362.057c-32-12.8-64-6.4-89.6-25.6-6.4-6.4 0-12.8 6.4-12.8 25.6 19.2 57.6 12.8 83.2 25.6 12.8 0 6.4 12.8 0 12.8zM518.4 349.257c-19.2-12.8-38.4-12.8-57.6-19.2-6.4-6.4 0-12.8 6.4-12.8 19.2 6.4 38.4 6.4 57.6 12.8 6.4 6.4 0 19.2-6.4 19.2zM371.2 426.057c-70.4-38.4-160-25.6-230.4-64-6.4-6.4 0-19.2 6.4-12.8 70.4 44.8 160 25.6 230.4 70.4 6.4 0 0 12.8-6.4 6.4zM320 406.857c-25.6-32-57.6-57.6-96-76.8-25.6-12.8-44.8-38.4-57.6-64 0-6.4 12.8-12.8 12.8-6.4 19.2 32 44.8 57.6 76.8 70.4 25.6 19.2 57.6 38.4 76.8 64 6.4 6.4 0 19.2-12.8 12.8zM281.6 362.057c-6.4-38.4-32-57.6-51.2-89.6-6.4-6.4 6.4-12.8 12.8-6.4 25.6 32 51.2 57.6 57.6 96-6.4 0-12.8 0-19.2 0 0 0 0 0 0 0zM211.2 323.657c-12.8-6.4-19.2-6.4-32-12.8-12.8 0-19.2-12.8-32-12.8-6.4 0-6.4-6.4-6.4-6.4s0-6.4 6.4-6.4c12.8 0 19.2 12.8 32 12.8s25.6 6.4 38.4 12.8c6.4 6.4 0 12.8-6.4 12.8zM377.6 432.457c-19.2 12.8-44.8 38.4-64 57.6-25.6 19.2-44.8 44.8-64 70.4 0 6.4-12.8-6.4-6.4-12.8 12.8-25.6 32-44.8 51.2-64 12.8-12.8 32-25.6 44.8-38.4 6.4-12.8 19.2-19.2 25.6-25.6 12.8-6.4 25.6 0 12.8 12.8zM505.6 438.857c-25.6 12.8-44.8 25.6-70.4 38.4-19.2 12.8-38.4 25.6-64 32-6.4 0-12.8-12.8 0-12.8 25.6-6.4 44.8-25.6 64-38.4s44.8-19.2 64-32c6.4-6.4 19.2 6.4 6.4 12.8zM480 451.657c-6.4 19.2-19.2 38.4-32 51.2-12.8 19.2-25.6 32-51.2 38.4-6.4 0-12.8-12.8-6.4-12.8 19.2-6.4 32-19.2 44.8-32 12.8-19.2 25.6-32 32-44.8 0-6.4 6.4-6.4 6.4-6.4 6.4 0 6.4 0 6.4 6.4zM486.4 534.857c-25.6 19.2-57.6 38.4-89.6 44.8-19.2 6.4-44.8 12.8-64 19.2-12.8 12.8-25.6 12.8-44.8 19.2-6.4 0-12.8-12.8 0-12.8 32-6.4 57.6-32 89.6-38.4 38.4-6.4 70.4-19.2 96-44.8 6.4 0 19.2 6.4 12.8 12.8zM403.2 573.257c-38.4-6.4-76.8-6.4-115.2 6.4-6.4 0-6.4-12.8 0-12.8 38.4-6.4 76.8-12.8 115.2-6.4 6.4 0 6.4 6.4 6.4 6.4s0 6.4-6.4 6.4zM409.6 643.657c-25.6 44.8-51.2 96-76.8 147.2-12.8 32-38.4 57.6-76.8 64-6.4 0-12.8-12.8 0-12.8 44.8-6.4 64-57.6 83.2-96s38.4-76.8 64-115.2c0 0 12.8 6.4 6.4 12.8zM345.6 752.457c-51.2 6.4-89.6 64-134.4 89.6-6.4 0-19.2-6.4-6.4-12.8 44.8-25.6 89.6-83.2 140.8-89.6 6.4 0 6.4 12.8 0 12.8zM377.6 650.057c-19.2 25.6-51.2 51.2-83.2 64-25.6 12.8-32 38.4-51.2 57.6-12.8 12.8-32 19.2-51.2 25.6-6.4 6.4-6.4-6.4 0-12.8 25.6-6.4 44.8-25.6 64-44.8 6.4-12.8 19.2-19.2 25.6-32 25.6-25.6 70.4-32 83.2-64 6.4-6.4 19.2 0 12.8 6.4zM268.8 733.257c-25.6 12.8-57.6 25.6-89.6 38.4-6.4 0-12.8-12.8 0-12.8 32-6.4 57.6-19.2 89.6-32 0-12.8 12.8 0 0 6.4z" />
<glyph unicode="&#xe90f;" glyph-name="cell-landscapes-large" d="M331.533 746.057c0 50.693 19.263 99.358 52.721 136.871-76.040 56.776-182.495 41.568-239.271-34.471s-41.568-182.495 34.471-239.271c60.832-45.624 143.968-45.624 204.8 0-33.457 37.513-52.721 86.178-52.721 136.871zM716.8 536.188c-43.596-26.36-94.289-35.485-143.968-26.36-3.042-36.499 5.069-72.998 24.333-104.428 49.679-80.095 154.107-105.442 235.216-55.762 80.095 49.679 105.442 154.107 55.762 235.216-19.263 31.43-48.665 55.762-82.123 68.943-15.208-49.679-46.638-91.248-89.22-117.608zM590.067 950.857c-113.552 0-205.814-92.261-205.814-204.8 0-113.552 92.261-204.8 204.8-204.8 113.552 0 204.8 92.261 204.8 204.8 1.014 112.539-91.248 204.8-203.786 204.8zM495.778 845.415c-36.499-37.513-79.081-136.871-76.040-88.206 6.083 89.22 80.095 158.162 169.315 158.162 43.596 1.014-56.776-32.444-93.275-69.956zM548.499 72.853c-7.097-40.554-29.402-78.067-61.846-103.414 52.721-56.776 141.941-59.818 198.717-6.083 56.776 52.721 59.818 141.941 6.083 198.717-42.582 45.624-109.497 56.776-165.259 29.402 21.291-35.485 29.402-77.053 22.305-118.622zM266.646 297.93c38.527 15.208 81.109 15.208 120.65 1.014 20.277 75.026-23.319 152.079-98.345 172.356s-152.079-23.319-172.356-98.345c-16.222-59.818 9.125-123.691 61.846-156.135 18.25 37.513 49.679 65.901 88.206 81.109zM369.046 275.625c-91.248 17.236-179.453-44.61-195.675-135.857s44.61-179.453 136.871-195.675c91.248-16.222 179.453 44.61 195.675 136.871 16.222 91.248-45.624 178.44-136.871 194.661zM286.923 207.697c-37.513-21.291-93.275-90.234-80.095-52.721 25.347 68.943 99.358 106.455 170.329 86.178 33.457-9.125-52.721-12.166-90.234-33.457z" />
<glyph unicode="&#xe910;" glyph-name="cell-motif-antibodies" d="M896 502.857c-12.8 0-19.2 0-25.6 0v32l-108.8-6.4-76.8 44.8c0 83.2-64 147.2-147.2 147.2s-147.2-64-147.2-147.2c-12.8-19.2-6.4-38.4-6.4-57.6l-51.2-19.2-108.8 25.6-12.8-44.8 83.2-19.2-25.6-38.4c-6.4 0-6.4 0-12.8 0-25.6 0-38.4-19.2-38.4-44.8 0-6.4 6.4-19.2 6.4-25.6-6.4 0-6.4 0-12.8-6.4-51.2 0-102.4 0-147.2 6.4v-51.2c44.8-6.4 89.6-6.4 134.4 0 51.2 6.4 83.2 32 153.6 44.8 38.4 6.4 76.8-6.4 96-32v38.4c0 0 6.4 25.6-64 38.4-38.4 6.4-64 0-89.6-6.4 0 0 0 0 0 6.4v0c0 0 0 0 0 0l51.2 70.4 64 25.6c25.6-32 70.4-57.6 115.2-57.6 6.4 0 6.4 0 12.8 0l6.4-32-44.8-102.4 32-12.8v-32c44.8-6.4 89.6-6.4 140.8 0 25.6 6.4 51.2 12.8 76.8 25.6 0-6.4 0-6.4 0-12.8 0-25.6 19.2-38.4 44.8-38.4s38.4 19.2 38.4 44.8c0 12.8-6.4 25.6-12.8 32 6.4 0 6.4 0 12.8 0 38.4 6.4 76.8-6.4 102.4-32v38.4c0 0 6.4 25.6-64 38.4-64 12.8-83.2-12.8-153.6-25.6 0 19.2-19.2 38.4-38.4 38.4 0 0 0 0 0 0s-6.4 0-6.4 0l-64 64v12.8c32 0 83.2 0 115.2 6.4 19.2 0 38.4 6.4 51.2 12.8l19.2-38.4 44.8 19.2-32 6.4c12.8 6.4 32 12.8 57.6 12.8 32 12.8 70.4 0 96-32v44.8c0 0 6.4 25.6-64 38.4zM620.8 298.057c0 0 0 0 0 0 0-6.4 0-12.8 0-12.8-25.6 0-44.8 0-70.4 6.4l25.6 51.2 44.8-44.8zM716.8 464.457c-25.6-6.4-57.6-6.4-83.2-6.4 19.2 19.2 32 38.4 38.4 64l64-38.4 6.4-12.8c-12.8 0-19.2 0-25.6-6.4z" />
<glyph unicode="&#xe911;" glyph-name="cell-peptide" d="M51.2 835.657v-787.2h928v787.2h-928zM947.2 80.457h-51.2v531.2h-25.6v-531.2h-57.6v224h-25.6v-224h-25.6v281.6h-25.6v-275.2h-57.6v416h-38.4v-416h-32v665.6h-25.6v-672h-57.6v390.4h-25.6v-390.4h-57.6v224h-25.6v-224h-32v307.2h-25.6v-307.2h-57.6v224h-25.6v-224h-32v588.8h-25.6v-582.4h-57.6v384h-25.6v-390.4h-57.6v723.2h864v-723.2z" />
<glyph unicode="&#xe912;" glyph-name="cell-pluripotency-markers" d="M563.2 445.257c0-17.673-14.327-32-32-32s-32 14.327-32 32c0 17.673 14.327 32 32 32s32-14.327 32-32zM787.2 797.257c-96 0-172.8-57.6-172.8-121.6s76.8-121.6 172.8-121.6c96 0 172.8 57.6 172.8 121.6 0 70.4-76.8 121.6-172.8 121.6zM729.6 618.057c-25.6 0-51.2 25.6-51.2 51.2s25.6 51.2 51.2 51.2c0 0 0 0 0 0 25.6 0 51.2-25.6 51.2-51.2s-25.6-51.2-51.2-51.2zM428.8 554.057c96 0 166.4 57.6 166.4 121.6 0 70.4-76.8 121.6-166.4 121.6-96 0-172.8-51.2-172.8-121.6s76.8-121.6 172.8-121.6zM364.8 720.457c25.6 0 51.2-25.6 51.2-51.2s-25.6-51.2-51.2-51.2-51.2 25.6-51.2 51.2c0 32 25.6 51.2 51.2 51.2zM704 323.657c-96 0-172.8-57.6-172.8-121.6s76.8-121.6 172.8-121.6 172.8 57.6 172.8 121.6c0 70.4-76.8 121.6-172.8 121.6zM691.2 195.657c0-25.6-25.6-51.2-51.2-51.2s-51.2 25.6-51.2 51.2c0 25.6 25.6 51.2 51.2 51.2 32 0 57.6-19.2 51.2-51.2 6.4 0 6.4 0 0 0zM403.2 451.657c0 70.4-76.8 121.6-172.8 121.6-89.6 0-166.4-51.2-166.4-121.6s76.8-121.6 166.4-121.6c96 0 172.8 51.2 172.8 121.6zM172.8 394.057c-25.6 0-51.2 25.6-51.2 51.2s25.6 51.2 51.2 51.2c25.6 0 51.2-25.6 51.2-51.2s-25.6-51.2-51.2-51.2zM422.4 451.657c0-70.4 76.8-121.6 172.8-121.6s166.4 57.6 166.4 121.6c0 70.4-76.8 121.6-166.4 121.6-96 0-172.8-51.2-172.8-121.6zM531.2 496.457c25.6 0 51.2-25.6 51.2-51.2s-19.2-51.2-51.2-51.2-51.2 25.6-51.2 51.2 25.6 51.2 51.2 51.2zM339.2 323.657c-96 0-166.4-57.6-166.4-121.6s76.8-121.6 166.4-121.6c96 0 172.8 57.6 172.8 121.6 0 70.4-76.8 121.6-172.8 121.6zM281.6 144.457c-25.6 0-51.2 19.2-51.2 51.2 0 25.6 19.2 51.2 51.2 51.2 0 0 0 0 0 0 25.6 0 51.2-19.2 51.2-51.2 0-25.6-19.2-51.2-51.2-51.2z" />
<glyph unicode="&#xe913;" glyph-name="cell-post-trans-mods" d="M672 464.457c0 0 0 0 0 0 0-108.8-89.6-198.4-198.4-198.4s-198.4 89.6-198.4 198.4c0 108.8 89.6 198.4 198.4 198.4 0 0 0 0 0 0 108.8 0 198.4-89.6 198.4-198.4zM454.4 227.657l-147.2-19.2c-12.8 0-25.6-19.2-25.6-32v-12.8c0-12.8 19.2-25.6 32-25.6l147.2 19.2c12.8 0 25.6 19.2 25.6 32v12.8c0 19.2-12.8 32-32 25.6zM243.2 170.057c-12.8 12.8-32 6.4-38.4-6.4l-89.6-115.2c-12.8-12.8-6.4-32 6.4-38.4l6.4-12.8c12.8-6.4 25.6-6.4 38.4 6.4l89.6 121.6c12.8 12.8 6.4 32-6.4 38.4l-6.4 6.4zM217.6 406.857h-12.8c0 0 0 0 0 0-12.8 0-25.6-19.2-19.2-32l19.2-140.8c0-12.8 19.2-25.6 32-25.6h12.8c12.8 0 25.6 19.2 25.6 32l-25.6 140.8c0 19.2-12.8 25.6-32 25.6zM691.2 765.257h-147.2c-19.2 0-32-12.8-32-25.6v-12.8c0 0 0 0 0 0 0-19.2 12.8-32 32-25.6h147.2c0 0 0 0 0 0 12.8 0 25.6 12.8 25.6 25.6v12.8c0 0 0 0 0 0 0 12.8-12.8 25.6-25.6 25.6zM915.2 874.057l-6.4 6.4c-12.8 12.8-32 12.8-38.4 0l-102.4-102.4c0 0 0 0 0 0-12.8-12.8-12.8-32 0-38.4v-12.8c12.8-12.8 32-12.8 38.4 0l102.4 102.4c0 0 0 0 0 0 12.8 19.2 12.8 32 6.4 44.8zM768 682.057h-6.4c-12.8 0-32-6.4-32-25.6v-147.2c0-19.2 12.8-32 32-32h6.4c19.2 0 32 12.8 32 32v147.2c0 12.8-19.2 25.6-32 25.6z" />
<glyph unicode="&#xe914;" glyph-name="cell-protein-domains" d="M965.854 427.955c-7.268 7.268-14.536 14.536-14.536 21.804 7.268 0 14.536 0 29.073 0 14.536 14.536 29.073 29.073 43.609 36.341 0 14.536-14.536 21.804-21.804 29.073 0 14.536-7.268 29.073-14.536 36.341-21.804 7.268-21.804-14.536-29.073 0 0-7.268 0-14.536-7.268-21.804 0 7.268-14.536 7.268-14.536 14.536s7.268-7.268 7.268 0c-14.536 21.804-14.536 50.877-29.073 72.681-7.268 7.268-14.536 7.268-14.536 14.536 0 0 7.268 0 7.268 0 7.268 36.341-36.341 65.413-65.413 58.145-14.536 0-21.804-14.536-36.341-21.804-21.804 14.536-36.341 29.073-50.877 43.609-7.268 0 0-7.268-7.268-7.268h-14.536c-14.536-7.268-14.536-14.536-21.804-21.804-14.536-7.268-21.804-14.536-36.341-21.804-7.268 0-21.804 0-29.073-7.268 0 7.268-7.268 7.268-7.268 7.268 7.268 7.268 0 21.804 7.268 29.073s29.073 7.268 36.341 14.536c14.536 36.341 0 72.681-29.073 94.486-29.073 7.268-36.341-7.268-50.877-21.804-7.268-14.536-7.268-29.073-14.536-36.341 0-29.073-7.268-58.145-7.268-87.218 0 0 7.268-7.268 7.268-7.268s0-7.268 0-7.268c-7.268 0-14.536 0-21.804 0-14.536-21.804-14.536-58.145-50.877-58.145-14.536 14.536-29.073 21.804-43.609 21.804 0 7.268-7.268 7.268-7.268 14.536 7.268 0 7.268 7.268 7.268 14.536 7.268-7.268 14.536 14.536 7.268 14.536 0 7.268 7.268 0 7.268 7.268s0 14.536 0 14.536c7.268-7.268 7.268-7.268 14.536-14.536-7.268-14.536 7.268-14.536 14.536-21.804 7.268 0 7.268 7.268 7.268 7.268s0 7.268 0 7.268-7.268 7.268-7.268 7.268c0 7.268 7.268 14.536 0 21.804s-21.804 7.268-21.804 21.804l7.268 7.268c0 0 0 0 0 0 21.804-7.268 43.609 7.268 50.877 29.073 0 0 7.268-14.536 0-14.536s0 0-7.268 0c7.268-21.804 14.536-50.877 29.073-65.413 0 7.268-7.268 7.268-7.268 14.536 0 14.536 14.536 29.073-7.268 29.073 7.268 7.268 0 14.536 0 29.073s-7.268 14.536-7.268 14.536c-14.536 0-14.536-14.536-21.804-21.804s-14.536-7.268-21.804-7.268c-21.804 0-21.804 21.804-50.877 14.536-14.536-7.268-29.073-7.268-43.609-21.804 0 7.268-14.536 7.268-21.804 7.268 7.268 21.804 14.536 43.609 14.536 65.413 0 14.536 14.536 29.073 7.268 50.877 0 21.804-14.536 50.877-36.341 65.413-7.268-7.268-7.268-21.804-14.536-21.804 0 7.268-7.268 14.536-14.536 21.804h-7.268c-7.268 0-7.268-21.804-7.268-29.073-14.536-7.268-21.804-14.536-36.341-7.268-7.268 7.268-14.536 7.268-21.804 14.536s-14.536 14.536-29.073 7.268c-7.268-14.536 21.804-14.536 21.804-21.804 0-14.536 7.268-21.804 7.268-36.341-7.268 0-14.536 7.268-21.804 7.268-7.268-7.268-7.268-14.536-7.268-14.536s-21.804-14.536-21.804-21.804c-14.536 14.536-36.341 21.804-58.145 29.073-29.073-7.268-43.609-50.877-21.804-79.95 0 0-7.268 0-7.268-7.268-21.804 7.268-43.609 29.073-43.609 58.145 0 14.536 21.804 29.073 14.536 50.877 0 21.804-29.073 29.073-65.413 29.073v-7.268c21.804-7.268 58.145 0 58.145-29.073 0-7.268-14.536-21.804-14.536-29.073 0-21.804 7.268-43.609 21.804-65.413 7.268 0 7.268-7.268 14.536-7.268 7.268-7.268 21.804-14.536 29.073 0 14.536-14.536 29.073-14.536 43.609-29.073-14.536-21.804-43.609-14.536-36.341-36.341 7.268 0 14.536-14.536 21.804-21.804-14.536 0-36.341 0-50.877 0 0 0 0 7.268 0 7.268-14.536 7.268-21.804 21.804-36.341 21.804 0 0 0 0 0 0-14.536 21.804-29.073 21.804-43.609 14.536-21.804-14.536-7.268-58.145 7.268-72.681 0-14.536 0-14.536 14.536-14.536 7.268 14.536-21.804 50.877-21.804 58.145s0 21.804 14.536 21.804c14.536 0 14.536-7.268 29.073-7.268 7.268-21.804 7.268-50.877 14.536-79.95 0 0 0 0 0 0s7.268 7.268 7.268 0c0 0 0-7.268-7.268-7.268 0 0 0 0 0 0s0 0 0 0c-7.268 0-14.536-7.268-21.804-7.268-7.268 7.268-14.536 0-21.804 0s-7.268 7.268-21.804 14.536-29.073-21.804-36.341-29.073c-7.268-21.804-7.268-43.609 0-65.413 0-14.536-14.536-43.609 0-50.877 21.804-7.268 43.609 0 43.609 14.536s-14.536 21.804-21.804 29.073c7.268 7.268 21.804 14.536 29.073 14.536s14.536-7.268 21.804-7.268c7.268 0 21.804-7.268 29.073-7.268 7.268-7.268 7.268-14.536 14.536-14.536-7.268-14.536-7.268-29.073-14.536-43.609 14.536-14.536 58.145 0 72.681-14.536-7.268-7.268-21.804-14.536-29.073-21.804-14.536 0-29.073 7.268-36.341 0 0-21.804-7.268-36.341-14.536-50.877 21.804-14.536 65.413 0 72.681-14.536-7.268-7.268-14.536-7.268-21.804-14.536-14.536 7.268-36.341 7.268-50.877 0 0-14.536 0-29.073-7.268-50.877 14.536-21.804 50.877-7.268 65.413 0-7.268-14.536-36.341-58.145-7.268-72.681 21.804 7.268 50.877-7.268 58.145-29.073 14.536-7.268 21.804-7.268 43.609-14.536 7.268 0 14.536 0 21.804 0 21.804 7.268 29.073 21.804 36.341 43.609 0 29.073-7.268 36.341-14.536 58.145-14.536-7.268-29.073-14.536-43.609-21.804 0 21.804 29.073 21.804 43.609 36.341 14.536 0 29.073 7.268 43.609 7.268 7.268 0 14.536 0 29.073 0 21.804 7.268 36.341 21.804 43.609 36.341 0-14.536 0-29.073 14.536-36.341 0-7.268-7.268-7.268-7.268-7.268 7.268-7.268 29.073-7.268 43.609-7.268s29.073-7.268 43.609-14.536c0-14.536 14.536-21.804 14.536-36.341s-7.268-36.341 0-36.341c7.268 0 7.268 7.268 7.268 14.536 7.268 21.804 7.268 50.877-14.536 58.145 0 21.804-29.073 36.341-29.073 58.145-7.268 7.268-14.536-7.268-14.536 0s0 0 0 7.268c0 7.268 7.268 7.268 7.268 7.268s0 0 0 7.268 14.536 7.268 14.536 14.536c0 7.268-7.268 7.268-7.268 14.536 0 14.536 0 29.073 7.268 50.877 14.536 21.804 14.536 36.341 21.804 43.609 14.536-14.536 29.073 0 43.609 0 0-7.268 0-14.536 0-29.073-7.268 0-7.268-7.268-14.536-7.268s0 0-7.268 0c0-29.073-14.536-58.145-29.073-87.218 7.268 0 7.268 7.268 7.268 7.268 0-7.268 0-7.268 0-14.536 14.536-7.268 14.536 7.268 21.804 14.536 0-7.268 14.536-21.804 21.804-7.268 0 7.268-7.268 14.536-7.268 21.804 7.268 0 14.536 0 14.536 14.536 0-7.268 7.268-14.536 14.536-21.804 14.536 0 36.341 0 50.877 0 0-14.536-14.536-29.073-14.536-50.877-7.268 0-14.536 7.268-14.536 7.268-14.536-21.804 0-50.877 14.536-65.413 0-14.536-21.804-14.536-21.804-29.073 7.268-7.268 7.268-14.536 14.536-21.804 7.268-14.536 29.073-21.804 29.073-29.073l-50.877-29.073c0-7.268 14.536 0 14.536 0 14.536 0 21.804 0 36.341 0 7.268 14.536 29.073 21.804 21.804 50.877 21.804 7.268 36.341 21.804 58.145 36.341 14.536 0 21.804 7.268 36.341 7.268 0 0 0 0 0 0 7.268 0 29.073 0 29.073 14.536 0-7.268 7.268-7.268 14.536-14.536 0-7.268 0-21.804 0-29.073-21.804 0-21.804 29.073-43.609 29.073v0c-7.268-14.536 7.268-36.341 21.804-36.341 36.341-14.536 87.218 14.536 72.681 50.877 7.268 7.268 21.804 0 21.804 14.536 7.268-7.268 14.536-14.536 14.536-14.536s-7.268 0-7.268 0c7.268-21.804 14.536-65.413-7.268-79.95-29.073 7.268-21.804-36.341 0-36.341-21.804-7.268-43.609-7.268-65.413 0 0 0 0-7.268 0-7.268-7.268 7.268-21.804 0-29.073-7.268-21.804 0-50.877 14.536-58.145-14.536-29.073 0-65.413 14.536-79.95 0-14.536-21.804-21.804-43.609-21.804-65.413 0-14.536 7.268-21.804 7.268-36.341 21.804 7.268 29.073 21.804 50.877 29.073 0 7.268-7.268 7.268-7.268 7.268 14.536 0 14.536 14.536 29.073 21.804 0-14.536 0-21.804 0-36.341 14.536 7.268 29.073 7.268 50.877 14.536 0 0-7.268 14.536 0 7.268s29.073 0 29.073-7.268c7.268 0 14.536 0 21.804 0 0 0-7.268 7.268 0 7.268s21.804 0 21.804 0c0 0 0 7.268 0 7.268s7.268-7.268 7.268-14.536c21.804 0 43.609 0 58.145-7.268 14.536 21.804 14.536 43.609 0 65.413 7.268 7.268 0 14.536 0 21.804 21.804-7.268 29.073 14.536 36.341 29.073-14.536 21.804-21.804 50.877 0 58.145 7.268 7.268 14.536 0 29.073 7.268s14.536 14.536 14.536 21.804c0 7.268-7.268 14.536-14.536 14.536-7.268 29.073 0 50.877 14.536 72.681 7.268 0 14.536 7.268 21.804 7.268 0 0 0 7.268 0 14.536 7.268 0 14.536 0 14.536 0 0 29.073-29.073 29.073-43.609 43.609 14.536 14.536 50.877 7.268 58.145 29.073-7.268 7.268-7.268 21.804-7.268 36.341-21.804 7.268-36.341 0-43.609-7.268zM987.659 522.441c-7.268 0-14.536 7.268-14.536 14.536 7.268 0 7.268-7.268 14.536-14.536zM507.962 667.803c7.268-7.268 7.268-7.268 0 0 0-7.268 0-7.268 0 0zM682.397 50.012c-7.268 0-7.268 0 0 0-7.268-7.268-7.268-7.268-14.536-14.536 0 7.268 7.268 14.536 14.536 14.536-7.268 0-7.268 7.268-14.536 7.268 0 7.268 7.268 14.536 7.268 14.536 7.268-7.268 14.536-21.804 7.268-21.804 0 0 0 0 0 0zM747.81 50.012c-7.268 0-7.268 0-7.268 0v0c0 14.536 14.536 21.804 14.536 36.341 0-7.268-7.268-21.804-7.268-36.341zM958.586 529.709c7.268 0 7.268-14.536 7.268-14.536v-7.268c-7.268 0-14.536 0-14.536 7.268s0 14.536 0 14.536c0-7.268 0 0 7.268 0zM864.1 638.731c0-7.268-7.268-7.268 0 0 0-7.268 0-7.268 0 0-7.268-7.268-7.268-7.268 0 0v0c-14.536-7.268-14.536-14.536-21.804-14.536-7.268 14.536-14.536 14.536-21.804 21.804 7.268 14.536 29.073 0 43.609-7.268zM711.47 675.072c0-7.268 7.268-14.536 21.804-14.536 0-7.268 0-7.268 0-7.268 21.804-7.268 50.877 7.268 72.681 0-7.268-14.536-36.341-14.536-36.341-14.536 0-7.268 0-7.268 0-7.268s0 0-7.268 0-7.268-7.268-7.268-7.268c-7.268-14.536-14.536-14.536-36.341-14.536 7.268 14.536-7.268 36.341-14.536 43.609h-7.268c0 7.268 7.268 14.536 14.536 21.804zM791.419 580.586c0 0 0 0 0 0v0c-7.268 7.268-14.536 14.536-29.073 29.073 0 0 14.536-7.268 14.536-7.268 7.268-7.268 14.536-14.536 14.536-21.804zM776.883 442.491c0-7.268 0-14.536 7.268-21.804-21.804 0-43.609 14.536-50.877 36.341v0c7.268 0 14.536 0 21.804 0 0 0 14.536-7.268 21.804-14.536zM609.716 769.557v0c7.268 7.268 14.536 14.536 36.341 14.536 29.073-14.536 36.341-50.877 21.804-79.95-14.536 0-36.341-14.536-36.341-21.804s7.268-21.804 0-21.804-7.268 14.536-7.268 14.536c-7.268-14.536-14.536-29.073-21.804-43.609-7.268 29.073-7.268 58.145-7.268 87.218 7.268 14.536 7.268 36.341 14.536 50.877zM595.179 638.731c7.268 0 0-14.536 0-14.536-7.268 0-7.268 14.536 0 14.536zM595.179 587.854c7.268-14.536 14.536-36.341 36.341-29.073 7.268 0 14.536 14.536 14.536 14.536 7.268 0 14.536 7.268 14.536 7.268 0 14.536 0 29.073-14.536 36.341 0-7.268 0-14.536-7.268-21.804 0 14.536 0 36.341 14.536 50.877l14.536-7.268c-14.536-29.073 0-50.877 29.073-50.877 7.268-7.268-7.268-14.536-7.268-21.804-29.073-7.268-43.609-21.804-65.413-36.341-14.536 7.268-21.804 29.073-36.341 29.073 7.268 7.268 7.268 21.804 7.268 29.073zM566.107 624.195c7.268 0 14.536-7.268 14.536-7.268 0-14.536-14.536-21.804-14.536-43.609-14.536 0-14.536-7.268-36.341-7.268 21.804 14.536 36.341 36.341 36.341 58.145zM500.694 573.318c7.268-7.268 14.536-7.268 29.073-7.268-14.536-7.268-21.804-14.536-29.073-21.804-14.536-7.268-29.073-14.536-36.341-29.073-14.536-7.268 0 0 0 7.268 0 14.536 0 29.073 14.536 36.341 7.268 0 14.536 14.536 21.804 14.536v0zM493.425 587.854c-7.268-7.268-14.536-14.536-14.536-14.536 0 7.268-7.268 7.268-7.268 7.268 7.268 7.268 14.536 7.268 21.804 7.268zM471.621 558.781c-14.536-7.268-14.536-29.073-14.536-43.609-7.268-7.268-14.536-7.268-21.804-7.268 0 7.268 0 7.268 0 14.536 0 0 0 0 0 0 7.268 7.268 14.536 14.536 7.268 14.536 0 7.268 0 14.536 0 14.536s-7.268 7.268 0 7.268c7.268 0 7.268 0 7.268 7.268l7.268-14.536c0 7.268 7.268 7.268 14.536 7.268zM449.817 580.586v0c7.268 0 0 14.536 7.268 14.536 0 0 7.268 7.268 14.536 0 0-14.536 0-14.536-7.268-14.536-14.536-7.268-14.536 0-14.536 0zM471.621 653.267c0-7.268-7.268-7.268 0 0l-7.268-21.804c-7.268 0-7.268 7.268-7.268 7.268v0c7.268 14.536 14.536 14.536 14.536 14.536 0 7.268 0 0 0 0zM449.817 718.68c7.268 0 21.804 7.268 29.073 0 0 0 0-7.268 0-14.536s7.268-7.268 14.536-7.268c7.268-14.536-7.268-14.536-7.268-29.073 0 0-7.268 7.268-14.536 7.268s0-7.268-7.268-7.268-7.268-7.268-7.268-7.268c-7.268 7.268-7.268 14.536-14.536 21.804 0 0-7.268 7.268-7.268 7.268v0c-7.268 7.268 7.268 14.536 14.536 29.073zM420.744 536.977c7.268 0 7.268-7.268 7.268-14.536 0 0 0 0 0 0-7.268 0-7.268 0-7.268-7.268v0c-7.268 7.268-7.268 21.804 0 21.804zM406.208 471.564c7.268-14.536-14.536-14.536-21.804-21.804 7.268 7.268 7.268 14.536 7.268 21.804 14.536 0 14.536-7.268 14.536 0zM369.867 413.419c0-7.268-7.268-14.536-14.536-14.536v7.268c0 7.268 0 7.268-7.268 14.536 0-7.268 14.536-7.268 21.804-7.268zM348.063 507.904c0-7.268 0-14.536 0-14.536 0-7.268 7.268-7.268 7.268-7.268-21.804 7.268-29.073-21.804-43.609-21.804 0 7.268 7.268 14.536 7.268 21.804 7.268 0 7.268 0 14.536 0 7.268 7.268 7.268 21.804 7.268 36.341 0 36.341 29.073 43.609 36.341 72.681 7.268 0 7.268 0 14.536 0 0-21.804 7.268-36.341 7.268-50.877-7.268 0-21.804 0-29.073 0-7.268-14.536-14.536-29.073-21.804-36.341zM311.722 362.542c7.268 0 14.536 0 21.804 0 0-7.268-21.804-14.536-21.804-14.536s0 14.536 0 14.536v0zM304.454 457.027c0-7.268-7.268-21.804 0-21.804-7.268 0-14.536-14.536-21.804-21.804v0c-7.268-7.268-14.536-7.268-7.268-29.073-14.536-7.268-21.804-21.804-36.341-29.073 0 0 7.268-7.268 0-7.268s0-14.536 0-14.536c-14.536 7.268-29.073 14.536-50.877 21.804 0 7.268 0 7.268 0 14.536 7.268 7.268 14.536 14.536 14.536 21.804 21.804 0 50.877 7.268 58.145 21.804s-14.536 29.073-14.536 36.341c0 7.268 0 21.804 0 29.073 14.536 21.804 36.341 43.609 58.145 58.145-7.268-14.536-7.268-36.341-7.268-50.877 7.268 0 7.268 0 14.536 0-7.268-7.268-14.536-14.536-7.268-29.073-7.268 7.268 0 7.268 0 0zM297.186 348.005c-14.536-7.268-21.804 7.268-29.073 14.536 14.536 7.268 21.804-7.268 29.073-14.536zM304.454 536.977c0 7.268 7.268 7.268 7.268 14.536 0 0 0-14.536-7.268-14.536zM260.845 544.245c-7.268 0-7.268 0-7.268 0-7.268-21.804-7.268-36.341-14.536-58.145 0 0 0-7.268 0-7.268s-7.268-7.268-7.268-7.268c0-7.268 0-14.536 0-21.804s14.536-14.536 14.536-29.073c-14.536-7.268-21.804-14.536-36.341-14.536-7.268 0-14.536 0-14.536 0 0 7.268 7.268 14.536 0 29.073 0 7.268 14.536 7.268 14.536 14.536 0 14.536 0 29.073 0 43.609s7.268 29.073 0 36.341c0 0 7.268 0 7.268 0 14.536 7.268 21.804 21.804 29.073 29.073v0c29.073 14.536 50.877 29.073 72.681 50.877-7.268-21.804-43.609-43.609-58.145-65.413zM340.794 631.463c7.268 0 0-14.536 7.268-14.536-14.536-14.536-14.536-29.073-29.073-36.341 0-7.268 0-7.268 0-7.268v0c0 21.804 14.536 36.341 21.804 58.145zM355.331 660.535c0 7.268 7.268 14.536 7.268 14.536 7.268 0-7.268-7.268-7.268-14.536zM391.671 464.295c0-7.268 0-7.268-7.268-14.536v0c0 7.268-7.268 14.536-14.536 14.536 7.268 7.268 14.536 0 21.804 0zM406.208 653.267c7.268-21.804-14.536-29.073-14.536-50.877h-14.536c7.268 14.536 0 29.073 0 50.877v0c7.268 0 21.804 0 29.073 0zM391.671 689.608c0-7.268 0-7.268 0-14.536 0 0 0 0 0 0-7.268 7.268 0 14.536 0 14.536zM348.063 885.848c7.268 0 7.268-14.536 14.536-14.536-7.268-7.268-14.536-14.536-14.536-14.536 0-7.268 7.268-14.536 14.536-14.536 7.268-21.804 0-65.413 7.268-72.681 0-14.536 21.804-29.073 14.536-43.609 0-7.268-7.268 0-7.268 0 0 36.341-21.804 50.877-29.073 79.95l-7.268 21.804c0 0 7.268 0 7.268 0 0 7.268-21.804 7.268-29.073 14.536 21.804 0 29.073 21.804 29.073 43.609zM151.823 740.485c-14.536 14.536-7.268 65.413 14.536 65.413 7.268 0 14.536-7.268 21.804-7.268s14.536 0 14.536 0v0c7.268 0 14.536 0 14.536-7.268s-14.536-7.268-14.536-14.536c21.804-21.804 43.609 21.804 65.413 21.804 0-14.536 14.536-21.804 14.536-21.804 7.268 0 14.536 0 14.536-7.268 36.341 0 36.341-43.609 65.413-58.145 7.268-29.073-7.268-43.609-14.536-65.413 0 21.804-21.804 29.073-29.073 29.073 0-7.268-7.268-21.804-14.536-14.536s-7.268 7.268-14.536 7.268c-7.268 21.804-29.073 36.341-36.341 58.145-7.268 0-7.268 0-7.268-7.268-7.268 21.804-58.145 21.804-94.486 21.804zM195.432 689.608c14.536-7.268 29.073-14.536 43.609-21.804 0 0 7.268-7.268 7.268-7.268 14.536 0 29.073 0 43.609 0-14.536-7.268-29.073-14.536-36.341-14.536 0 0 0 0-7.268 0 0 0 0 0 0 0h-7.268c-29.073-7.268-36.341 14.536-50.877 29.073 0 7.268 7.268 0 7.268 14.536zM188.164 645.999c7.268 0 14.536-7.268 14.536-7.268-7.268-7.268 0-14.536-14.536-14.536 0 7.268-7.268 21.804 0 21.804zM180.895 551.513c7.268 14.536 21.804 21.804 14.536 36.341 14.536 7.268 21.804 14.536 29.073 21.804 21.804 14.536 58.145 14.536 79.95 21.804 7.268 7.268 14.536 0 14.536 7.268s-7.268 14.536-7.268 14.536c7.268 0 14.536 7.268 14.536 14.536 7.268-7.268 14.536-7.268 14.536-14.536-29.073-21.804-65.413-36.341-94.486-58.145-29.073-7.268-43.609-29.073-65.413-43.609v0zM166.359 675.072c0 7.268 14.536 7.268 14.536 7.268s-14.536-7.268-14.536-7.268zM35.533 457.027c-7.268 0-7.268 0-14.536 0 0 7.268 0 21.804 0 29.073 7.268-7.268 21.804-21.804 14.536-29.073zM122.75 493.368c0 7.268-14.536 7.268-29.073 14.536s-29.073 14.536-29.073 14.536-29.073 0-36.341-7.268c-7.268 21.804 0 50.877 21.804 65.413 7.268 0 29.073-14.536 43.609 0 14.536 0 21.804 0 36.341 0 0-21.804 0-43.609 0-65.413 0-7.268-7.268-7.268 7.268-7.268 7.268 0 14.536 7.268 29.073 7.268-7.268-7.268-14.536-14.536-29.073-21.804-7.268-7.268-14.536-7.268-14.536 0zM137.287 486.1c14.536 7.268 29.073 14.536 36.341 29.073 14.536-7.268 14.536-14.536 21.804-21.804 0-7.268-14.536-7.268-14.536-14.536-14.536-7.268-29.073 0-43.609 7.268zM246.309 253.519v0c-7.268-29.073 14.536-36.341 14.536-65.413-7.268-7.268-14.536-14.536-21.804-14.536-21.804 14.536-14.536 58.145-36.341 65.413-7.268 0-14.536 0-21.804-7.268-14.536 7.268 7.268 43.609-14.536 50.877 21.804 14.536 7.268 50.877 7.268 72.681 14.536-14.536 36.341-21.804 50.877-36.341 0 0 0-7.268-7.268-14.536 7.268-14.536 0-21.804 0-36.341 14.536-7.268 29.073-7.268 43.609 0 0 0-14.536-7.268-14.536-14.536zM246.309 311.665v0c0 7.268 7.268 7.268 7.268 14.536 14.536-14.536 36.341-21.804 58.145-14.536-14.536-29.073-50.877-14.536-65.413 0zM420.744 340.737c-7.268-7.268-7.268-14.536-14.536-21.804-21.804-29.073-72.681-14.536-109.022-29.073 7.268 7.268 14.536 14.536 14.536 29.073 21.804 7.268 36.341 29.073 36.341 50.877 14.536 0 21.804 29.073 29.073 43.609 21.804 7.268 29.073 29.073 36.341 50.877v-7.268c21.804 0 21.804 21.804 36.341 29.073 7.268-7.268-7.268-21.804 0-29.073 0-21.804-21.804-21.804-43.609-29.073-21.804-29.073 14.536-58.145 36.341-72.681-7.268 0-14.536-7.268-21.804-14.536zM442.548 340.737c0 0 7.268 7.268 7.268 0 0 0-7.268 0-7.268 0zM573.375 464.295c-14.536 0-36.341-14.536-50.877 0-21.804-7.268-29.073-36.341-36.341-58.145s-14.536-43.609 0-58.145c0-7.268-21.804-7.268-21.804 0s0 29.073-7.268 21.804c-7.268 0-7.268 0-7.268-7.268-7.268 21.804-36.341 21.804-36.341 58.145 7.268 0 14.536 7.268 29.073 7.268 7.268 7.268 14.536 14.536 21.804 21.804-7.268 50.877 21.804 65.413 43.609 87.218 14.536 7.268 36.341 14.536 58.145 14.536 0-14.536-7.268-21.804-14.536-29.073 0-14.536 21.804-14.536 21.804-14.536 7.268 0 0 7.268 0 7.268 14.536 0 29.073 0 43.609 7.268 0-14.536-7.268-21.804-14.536-36.341-14.536 0-29.073-7.268-29.073-21.804zM616.984 427.955l-29.073-14.536c7.268 7.268 14.536 7.268 29.073 14.536-7.268 7.268-7.268 7.268 0 0zM580.643 435.223c0 7.268 21.804 7.268 21.804 7.268 0-7.268-7.268-14.536-14.536-14.536s-7.268 0-7.268 7.268zM624.252 369.81c-7.268-14.536-14.536-21.804-21.804-29.073 0 0-7.268 7.268-7.268 7.268 7.268 14.536 14.536 21.804 29.073 29.073 0 21.804-14.536 21.804-36.341 29.073l29.073 21.804c7.268-7.268 14.536-14.536 21.804-14.536 7.268 14.536 21.804 29.073 36.341 36.341 0 7.268-7.268 7.268-7.268 7.268v0c-7.268 14.536-14.536 14.536-21.804 21.804 7.268 7.268 7.268 21.804 0 29.073 21.804 0 21.804-21.804 36.341-29.073l50.877 36.341c-7.268 14.536-14.536 29.073-29.073 36.341 0 7.268 7.268 7.268 7.268 14.536 7.268 0 21.804-7.268 29.073-14.536 0-14.536 14.536-29.073 29.073-14.536-7.268-14.536-21.804-14.536-21.804-21.804v0c0-7.268-7.268-14.536 0-21.804 0 0 0 0-7.268 0-7.268-21.804-29.073-29.073-36.341-50.877 0 0 0-7.268 0-7.268-7.268-21.804-43.609-29.073-43.609-58.145-7.268 0-14.536 7.268-21.804 14.536-7.268-7.268-14.536-14.536-14.536-21.804zM718.738 391.614c0-7.268-14.536-7.268-21.804-7.268v0c0 7.268 0 21.804 0 29.073h14.536c0-7.268 0-14.536 7.268-21.804zM675.129 333.469c0 0 0 0 0 0 0-14.536-7.268-14.536-14.536-14.536s-14.536 7.268-7.268 14.536v0c7.268 0 14.536 7.268 14.536 7.268s7.268 0 7.268-7.268zM624.252 289.86c0 0-7.268 0 0 0 0 7.268 0 14.536 0 14.536 0-7.268 7.268-14.536 0-14.536zM660.593 217.179c-7.268 14.536-7.268 29.073-21.804 36.341 0 7.268 0 14.536 0 14.536s-7.268 0-7.268 0v0c0 7.268 0 7.268 0 14.536 7.268-7.268 21.804-14.536 36.341-21.804 0-14.536 0-29.073-7.268-43.609zM776.883 289.86c-14.536 0-21.804 0-36.341 0-7.268-21.804 0-36.341-7.268-65.413-14.536 7.268-14.536 36.341-29.073 50.877-7.268 0-14.536-7.268-21.804-7.268 0 7.268 0 21.804 0 29.073-7.268 0-29.073 0-21.804 0 7.268 7.268 21.804 7.268 21.804 14.536 14.536-7.268 14.536-14.536 29.073-14.536v0c14.536 0 7.268 21.804 14.536 29.073 7.268-7.268 14.536-14.536 29.073-14.536 7.268-14.536 36.341-14.536 29.073-21.804 0 7.268-7.268 0-7.268 0zM776.883 318.933c-14.536 14.536-21.804 36.341-14.536 58.145 14.536-7.268 29.073-14.536 36.341-29.073-7.268-7.268-14.536-21.804-21.804-29.073zM776.883 500.636c0 7.268-7.268 14.536-7.268 29.073 29.073 0 36.341-21.804 65.413-21.804 7.268 14.536 14.536 29.073 21.804 36.341 0 14.536-14.536 14.536-29.073 14.536 7.268 7.268 0 14.536 0 21.804 7.268 0 14.536 7.268 21.804 7.268 0 14.536-14.536 14.536-14.536 29.073v0c7.268 7.268 21.804 7.268 21.804 7.268s-7.268-14.536 0-14.536c7.268 0 21.804 14.536 29.073 14.536s7.268-7.268 14.536-7.268c0-21.804-14.536-29.073-21.804-43.609 0-7.268 7.268 0 7.268-7.268s-14.536-7.268-14.536-7.268c0-14.536 0-36.341 0-58.145 14.536-7.268 29.073-14.536 36.341-14.536 0-7.268 0-7.268-7.268-7.268 0-7.268-7.268-14.536-7.268-21.804-14.536 14.536-43.609 21.804-65.413 29.073-7.268-7.268-7.268-7.268-14.536-14.536-7.268 21.804-21.804 29.073-36.341 29.073zM907.709 435.223c-7.268 0-14.536 0-21.804 0 0 7.268 7.268 14.536 14.536 14.536 0-7.268 7.268-14.536 7.268-14.536zM864.1 348.005c-14.536 0-21.804 14.536-36.341 14.536 7.268 7.268 14.536 21.804 21.804 29.073 0 0 0-7.268 0-7.268-7.268-21.804 7.268-29.073 14.536-36.341zM849.564 398.882c0 14.536-7.268 21.804-14.536 36.341 7.268 0 21.804-7.268 29.073-7.268 0-14.536-7.268-21.804-14.536-29.073zM820.492 260.788c-7.268 7.268-7.268 14.536-7.268 14.536 7.268 7.268 14.536 0 7.268-14.536zM798.687 188.106c0 7.268 0 14.536 0 21.804v0c7.268 0 14.536 7.268 21.804 7.268 0 0 0 0 0 0 7.268-14.536-7.268-29.073-21.804-29.073zM864.1 64.548c0 7.268 0 21.804-7.268 29.073 7.268 7.268 14.536 7.268 21.804 7.268-7.268-14.536-7.268-21.804-14.536-36.341zM893.173 115.425c-14.536-7.268-36.341 0-43.609 14.536v0c29.073 0 29.073 21.804 43.609 36.341 0-14.536 14.536-36.341 0-50.877zM965.854 333.469c7.268-7.268 0 0 0 0-7.268-7.268-14.536-7.268-14.536-7.268-21.804-29.073-29.073-72.681-14.536-101.754-7.268-14.536-21.804-14.536-36.341-21.804 0 7.268 0 21.804 0 29.073-7.268 21.804-14.536 50.877-14.536 72.681-21.804 0-36.341-7.268-58.145-7.268 0 7.268 0 7.268 0 14.536 14.536-7.268 21.804-7.268 36.341 0 14.536 14.536 29.073 29.073 43.609 36.341 0 14.536 0 21.804-7.268 36.341 14.536 0 36.341-7.268 36.341 14.536 0-7.268 0-21.804 0-29.073 7.268-21.804 14.536-29.073 14.536-36.341 7.268 0 7.268 0 14.536 0zM580.643 653.267c-7.268 0-7.268 0 0 0-7.268 0-7.268 0 0 0 0 0 0 0 0 0zM682.397 471.564v0zM747.81 217.179v0 0zM682.397 471.564c14.536 7.268 29.073 14.536 50.877 14.536 0 7.268 0 7.268 0 14.536l-50.877-29.073c0 0 0 0 0 0zM108.214 595.122c0 0 0 0 0 0s0 0 0 0 0 0 0 0zM856.832 631.463v0c0 0 0 0 0 0s0 0 0 0zM747.81 515.172c0 0 0 7.268 0 0l-21.804-7.268c0 0 0 0 0 0l21.804 7.268z" />
<glyph unicode="&#xe915;" glyph-name="cell-simplechip" d="M44.8 829.257v-793.6h934.4v793.6h-934.4zM940.8 74.057h-51.2v384h-115.2v-384h-57.6v473.6h-108.8v-473.6h-166.4v300.8h-108.8v-300.8h-57.6v582.4h-115.2v-582.4h-76.8v716.8h857.6v-716.8z" />
<glyph unicode="&#xe916;" glyph-name="cell-solutions" d="M512 291.657c83.2 0 147.2 64 147.2 147.2s-64 147.2-147.2 147.2c-83.2 0-147.2-64-147.2-147.2s64-147.2 147.2-147.2zM512 554.057c64 0 115.2-51.2 115.2-115.2s-51.2-115.2-115.2-115.2c-64 0-121.6 51.2-121.6 115.2s57.6 115.2 121.6 115.2zM812.8 586.057c0 0 0 0 0 0-83.2 0-147.2-70.4-147.2-147.2s70.4-147.2 147.2-140.8c76.8 0 140.8 64 140.8 147.2 6.4 76.8-57.6 140.8-140.8 140.8zM812.8 342.857c-51.2 0-96 38.4-96 96 0 51.2 38.4 89.6 96 89.6s96-38.4 96-89.6c-6.4-51.2-44.8-96-96-96zM204.8 586.057c0 0 0 0 0 0-76.8 0-140.8-70.4-140.8-147.2 0-83.2 64-147.2 147.2-147.2 76.8 0 147.2 64 147.2 147.2-6.4 83.2-70.4 147.2-153.6 147.2zM211.2 394.057c0 0-6.4 0 0 0-32 0-51.2 19.2-51.2 44.8s25.6 44.8 51.2 44.8c25.6 0 44.8-19.2 44.8-44.8s-19.2-44.8-44.8-44.8zM512 278.857c-83.2 0-147.2-64-147.2-147.2 0-76.8 64-140.8 147.2-140.8s147.2 64 147.2 147.2c0 76.8-64 140.8-147.2 140.8zM512 112.457c-12.8 0-25.6 12.8-25.6 25.6s12.8 25.6 25.6 25.6 25.6-12.8 25.6-25.6c0-12.8-12.8-25.6-25.6-25.6zM512 886.857c-83.2 0-147.2-64-147.2-147.2s64-147.2 147.2-147.2 147.2 64 147.2 147.2c0 83.2-64 147.2-147.2 147.2zM512 669.257c-38.4 0-70.4 25.6-70.4 64s25.6 70.4 64 70.4c38.4 0 70.4-25.6 70.4-64 0 0 0 0 0 0 6.4-38.4-25.6-64-64-70.4z" />
<glyph unicode="&#xe917;" glyph-name="cell-wb" d="M512 579.657c-243.2 0-448-64-448-140.8s198.4-140.8 448-140.8 448 64 448 140.8c0 76.8-204.8 140.8-448 140.8zM499.2 675.657c128 0 230.4 32 230.4 70.4s-102.4 70.4-230.4 70.4-236.8-32-236.8-70.4 108.8-70.4 236.8-70.4zM499.2 202.057c-128 0-230.4-32-230.4-70.4s102.4-70.4 230.4-70.4 230.4 32 230.4 70.4c0 38.4-102.4 70.4-230.4 70.4z" />
<glyph unicode="&#xe918;" glyph-name="cell-wb-flour" d="M70.4 810.057v-742.4h883.2v742.4h-883.2zM505.6 771.657c102.4 0 192-25.6 192-57.6s-89.6-57.6-192-57.6c-108.8 0-192 25.6-192 57.6s89.6 57.6 192 57.6zM505.6 144.457c-108.8 0-192 25.6-192 57.6s83.2 57.6 192 57.6c108.8 0 192-25.6 192-57.6s-83.2-57.6-192-57.6zM518.4 342.857c-198.4 0-364.8 51.2-364.8 115.2s166.4 115.2 364.8 115.2 371.2-51.2 371.2-115.2-166.4-115.2-371.2-115.2z" />
<glyph unicode="&#xe919;" glyph-name="arrow-circle" d="M940.8 259.657c6.4 12.8 6.4 25.6 12.8 38.4 0 0 0 6.4 0 6.4 6.4 12.8 6.4 25.6 6.4 32s0 6.4 0 12.8c0 12.8 6.4 19.2 6.4 32 0 6.4 0 6.4 0 12.8 0 12.8 0 19.2 0 32 0 6.4 0 6.4 0 12.8 0 0 0 0 0 6.4s0 12.8 0 25.6c0 6.4 0 19.2 0 25.6s0 6.4 0 12.8c0 12.8-6.4 25.6-6.4 38.4 0 0 0 0 0 0s0 0 0 0c-38.4 204.8-224 358.4-448 358.4-211.2 0-396.8-140.8-448-339.2 0 0 0 0 0-6.4-6.4-12.8-6.4-25.6-12.8-38.4 0-6.4 0-6.4 0-12.8 0-12.8 0-19.2-6.4-32 0-6.4 0-19.2 0-25.6s0-12.8 0-12.8c0 0 0 0 0-6.4 0-12.8 0-19.2 0-32 0-6.4 0-6.4 0-12.8 0-12.8 0-25.6 6.4-32 0-6.4 0-6.4 0-12.8 0 0 0-6.4 0-6.4 0-6.4 0-6.4 6.4-12.8 6.4-19.2 12.8-38.4 19.2-51.2s6.4-19.2 12.8-32c6.4-12.8 12.8-25.6 19.2-32 6.4-12.8 19.2-25.6 25.6-38.4 6.4-6.4 12.8-19.2 19.2-25.6 6.4-12.8 19.2-19.2 25.6-25.6s12.8-12.8 19.2-12.8c12.8-12.8 32-25.6 44.8-38.4 6.4-12.8 12.8-19.2 19.2-19.2 19.2-12.8 38.4-19.2 57.6-32 6.4 0 12.8-6.4 19.2-6.4 38.4-19.2 83.2-25.6 121.6-32 6.4 0 6.4 0 12.8 0 12.8 0 25.6-6.4 38.4-6.4 32 0 70.4 6.4 102.4 12.8 153.6 32 268.8 140.8 326.4 275.2 0 0 0 0 0 0zM940.8 400.457c0-6.4 0-6.4 0-12.8 0-12.8 0-19.2-6.4-32 0 0 0-6.4 0-6.4 0-12.8-6.4-19.2-6.4-32 0 0 0-6.4 0-6.4-6.4-12.8-6.4-25.6-12.8-32 0 0 0 0 0 0-64-153.6-217.6-262.4-396.8-262.4-192 0-352 128-409.6 300.8 0 0 0 6.4 0 6.4-12.8 6.4-12.8 19.2-19.2 32 0 6.4 0 6.4 0 12.8 0 12.8-6.4 19.2-6.4 32 0 6.4 0 6.4 0 12.8s0 19.2 0 25.6c0 6.4 0 12.8 0 19.2s0 12.8 0 19.2c0 6.4 0 19.2 0 25.6s0 6.4 0 12.8c0 12.8 6.4 19.2 6.4 32 0 0 0 0 0 6.4 44.8 140.8 160 256 307.2 300.8l25.6-83.2c-179.2-51.2-288-230.4-249.6-409.6 38.4-185.6 224-307.2 416-262.4 185.6 38.4 307.2 224 262.4 416-25.6 128-121.6 224-249.6 262.4l25.6 83.2c153.6-38.4 268.8-166.4 307.2-320 0 0 0 0 0 0 0-12.8 6.4-25.6 6.4-38.4 0 0 0-6.4 0-6.4 0-6.4 0-19.2 0-25.6s0-12.8 0-19.2c0-6.4 0-12.8 0-12.8 0-19.2 0-25.6 0-38.4zM678.4 413.257l-256-147.2v294.4l256-147.2zM588.8 861.257l-44.8-166.4c-19.2 0-38.4 0-64 0l-44.8 166.4c25.6 6.4 51.2 6.4 76.8 6.4s51.2 0 76.8-6.4z" />
<glyph unicode="&#xe91a;" glyph-name="thin-arrow-left" d="M665.6-60.343l-377.6 512 364.8 486.4 51.2-38.4-332.8-448 345.6-473.6z" />
<glyph unicode="&#xe91b;" glyph-name="arrow-right" d="M345.6 938.057l371.2-512-358.4-486.4-51.2 38.4 332.8 448-352 473.6z" />
<glyph unicode="&#xe91c;" glyph-name="article" d="M550.4 406.857v0 0 0zM704 202.057h-384c-12.8 0-19.2-6.4-19.2-19.2s6.4-19.2 19.2-19.2h384c12.8 0 19.2 6.4 19.2 19.2 0 6.4-6.4 19.2-19.2 19.2zM320 534.857c-12.8 0-19.2-6.4-19.2-19.2s6.4-25.6 19.2-25.6h307.2c12.8 0 19.2 6.4 19.2 19.2s-6.4 19.2-19.2 19.2h-307.2zM825.6 694.857l-172.8 185.6c-6.4 6.4-6.4 6.4-12.8 6.4h-428.8c-12.8 0-19.2-12.8-19.2-19.2v-851.2c0-12.8 6.4-25.6 19.2-25.6h601.6c12.8 0 19.2 12.8 19.2 19.2v665.6c0 6.4 0 12.8-6.4 19.2zM659.2 816.457l108.8-115.2h-108.8v115.2zM793.6 29.257h-563.2v812.8h384v-166.4c0-12.8 6.4-19.2 19.2-19.2h153.6l6.4-627.2zM300.8 342.857c0-12.8 6.4-19.2 19.2-19.2 0 0 0 0 0 0h384c12.8 0 19.2 12.8 19.2 25.6 0 6.4-6.4 12.8-19.2 19.2h-384c-12.8 0-19.2-12.8-19.2-25.6 0 6.4 0 0 0 0z" />
<glyph unicode="&#xe91d;" glyph-name="benefits" d="M512 886.857c-249.6 0-448-198.4-448-448s198.4-448 448-448 448 198.4 448 448c0 249.6-198.4 448-448 448zM710.4 451.657h-147.2v-147.2h-102.4v147.2h-147.2v96h147.2v147.2h96v-147.2h147.2v-96z" />
<glyph unicode="&#xe91e;" glyph-name="certificate" d="M710.4 304.457l-108.8 51.2 12.8 121.6-102.4-70.4-96 70.4 12.8-121.6-108.8-51.2 108.8-44.8-12.8-121.6 96 70.4 102.4-70.4-12.8 121.6zM928 778.057h-832c-32 0-51.2-19.2-51.2-51.2v-492.8c0-25.6 19.2-51.2 51.2-51.2h307.2l6.4 38.4h-313.6c-6.4 0-12.8 6.4-12.8 12.8v492.8c0 6.4 6.4 12.8 12.8 12.8h832c6.4 0 12.8-6.4 12.8-12.8v-492.8c0-6.4-6.4-12.8-12.8-12.8h-300.8l6.4-38.4h294.4c25.6 0 51.2 19.2 51.2 51.2v492.8c0 32-19.2 51.2-51.2 51.2zM204.8 624.457h620.8v-38.4h-620.8v38.4z" />
<glyph unicode="&#xe91f;" glyph-name="coa" d="M186.572 600.767h662.115v-68.088h-662.115v68.088zM848.151 718.715h-661.579v-68.088h662.115v68.088zM629.412 254.966l88.997 65.943-110.978 1.608 33.24 105.617-90.605-64.335-35.384 105.081-35.384-105.081-90.605 64.335 33.24-105.617-110.978-1.608 88.997-65.943-88.997-66.48 110.978-1.072-33.24-106.153 90.605 64.335 35.384-105.081 35.384 105.081 90.605-64.335-33.24 106.153 110.978 1.072-88.997 66.48zM940.364 848.457h-851.368c-34.848 0-63.263-28.415-63.263-63.263v-504.494c0-34.848 28.415-63.263 63.263-63.263h223.564l49.324 36.993-35.384 26.27h-237.504v504.494h851.368v-504.494h-237.504l-35.384-26.27 49.324-36.993h223.564c34.848 0 63.263 28.415 63.263 63.263v504.494c-0.536 34.848-28.415 63.263-63.263 63.263z" />
<glyph unicode="&#xe920;" glyph-name="datasheet" d="M140.8 918.857v-480h-83.2v-268.8h83.2v-217.6h761.6v960h-761.6zM838.4 22.857h-633.6v153.6h518.4v262.4h-518.4v416h633.6v-832zM288 752.457h467.2v-64h-467.2v64zM288 618.057h467.2v-64h-467.2v64z" />
<glyph unicode="&#xe921;" glyph-name="employee" d="M665.6 534.857h-57.6c-25.6-19.2-64-32-102.4-32-44.8 0-83.2 12.8-115.2 32h-44.8l-96-275.2 96-281.6h320l96 281.6-96 275.2zM505.6 554.057c89.6 0 160 70.4 160 160s-70.4 166.4-160 166.4-166.4-76.8-166.4-166.4 76.8-160 166.4-160z" />
<glyph unicode="&#xe922;" glyph-name="envelope-dollar" d="M307.2 355.657l12.8 64-185.6 115.2-32-57.6zM908.8 464.457l-32 57.6-140.8-83.2c0-6.4 0-19.2 0-25.6 0-19.2-6.4-38.4-12.8-57.6l185.6 108.8zM492.8 355.657c-51.2 0-89.6 12.8-121.6 32l-19.2-89.6c25.6-19.2 76.8-32 128-32v-70.4h70.4v76.8c83.2 12.8 134.4 70.4 134.4 134.4s-38.4 108.8-121.6 140.8c-64 25.6-89.6 38.4-89.6 64 0 19.2 12.8 38.4 64 38.4s89.6-19.2 108.8-25.6l19.2 83.2c-32 19.2-64 32-115.2 32v64h-70.4v-70.4c-76.8-12.8-128-64-128-134.4s51.2-108.8 134.4-134.4c57.6-19.2 76.8-38.4 76.8-64s-25.6-44.8-70.4-44.8zM928 624.457h-358.4v-64h358.4v-492.8h-832v492.8h230.4c-12.8 19.2-19.2 38.4-19.2 64 0 0 0 0 0 0h-217.6c-32 0-64-25.6-64-64v-492.8c0-32 25.6-64 64-64h832c32 0 64 25.6 64 64v499.2c6.4 32-25.6 57.6-57.6 57.6z" />
<glyph unicode="&#xe923;" glyph-name="calendar-events" d="M550.4 406.857v0 0 0zM601.6 221.257h-192v76.8h51.2v256h-38.4v51.2l76.8 19.2h51.2v-332.8h51.2v-70.4zM825.6 797.257v44.8h-153.6v32c0 12.8-12.8 25.6-25.6 25.6-6.4 0-19.2-12.8-19.2-25.6v-32h-134.4v32c0 12.8-12.8 25.6-25.6 25.6 0 0 0 0 0 0-6.4 0-19.2-12.8-19.2-25.6v-32h-128v32c0 12.8-6.4 25.6-19.2 25.6s-25.6-12.8-25.6-25.6v-32h-134.4v-793.6h57.6v-44.8h691.2v793.6h-64zM172.8 74.057v742.4h102.4v-32c0-12.8 12.8-25.6 25.6-25.6s19.2 12.8 19.2 25.6v32h128v-32c0 0 0 0 0 0 0-19.2 12.8-25.6 25.6-25.6 0 0 0 0 0 0 12.8 0 25.6 12.8 19.2 25.6v32h134.4v-32c0-12.8 12.8-25.6 25.6-25.6s25.6 12.8 25.6 25.6v32h121.6v-736h-627.2zM851.2 29.257h-620.8v19.2h601.6v716.8h25.6v-736z" />
<glyph unicode="&#xe924;" glyph-name="read-news" d="M268.8 726.857c51.2-51.2 102.4-102.4 160-147.2v0c-32 70.4-83.2 134.4-147.2 192-6.4 0-12.8 12.8-19.2 12.8 0-19.2 6.4-38.4 6.4-57.6zM588.8 573.257c25.6 25.6 51.2 44.8 83.2 76.8s64 51.2 76.8 83.2c6.4 19.2 0 38.4 6.4 51.2-70.4-51.2-128-128-166.4-211.2zM576 515.657c83.2 51.2 185.6 83.2 262.4 140.8 6.4 12.8 6.4 25.6 12.8 44.8 6.4 12.8 25.6 32 19.2 38.4-115.2-44.8-217.6-121.6-294.4-224zM531.2 483.657c0-134.4-12.8-262.4-6.4-390.4 96 38.4 179.2 83.2 275.2 128 57.6 153.6 108.8 307.2 160 460.8h-6.4c-134.4-70.4-281.6-140.8-422.4-198.4zM64 675.657c51.2-147.2 102.4-294.4 147.2-448 96-51.2 192-96 294.4-134.4-6.4 128-6.4 262.4-12.8 390.4-147.2 57.6-288 140.8-428.8 192zM953.6 682.057c-140.8-70.4-281.6-134.4-422.4-192 0-134.4-12.8-262.4-6.4-390.4 96 38.4 179.2 89.6 275.2 128 57.6 140.8 108.8 294.4 153.6 454.4v0zM428.8 579.657c-38.4 70.4-83.2 134.4-140.8 185.6-12.8 6.4-19.2 19.2-25.6 19.2 6.4-19.2 6.4-38.4 6.4-51.2 51.2-57.6 102.4-108.8 160-153.6zM748.8 733.257c6.4 19.2 0 38.4 6.4 51.2-70.4-51.2-128-128-166.4-211.2 25.6 25.6 57.6 51.2 83.2 76.8 19.2 25.6 64 51.2 76.8 83.2zM441.6 522.057c-83.2 89.6-166.4 185.6-294.4 224 19.2-25.6 25.6-57.6 32-83.2 83.2-51.2 179.2-102.4 262.4-140.8zM851.2 701.257c6.4 12.8 25.6 32 19.2 38.4-115.2-44.8-217.6-121.6-294.4-224 83.2 51.2 185.6 89.6 262.4 140.8 12.8 12.8 6.4 25.6 12.8 44.8z" />
<glyph unicode="&#xe925;" glyph-name="my-account" d="M512 922.409c266.912 0 483.552-216.64 483.552-483.552s-216.64-483.552-483.552-483.552c-266.912 0-483.552 216.64-483.552 483.552s216.64 483.552 483.552 483.552zM512 395.337c-96.704 0-288.672-52.704-290.144-148.928 62.4-93.824 169.28-155.712 290.144-155.712 120.896 0 227.744 61.888 290.144 155.712-1.472 96.224-193.92 148.928-290.144 148.928zM512 777.353c-80.256 0-145.056-64.8-145.056-145.088 0-80.256 64.8-145.056 145.056-145.056s145.056 64.8 145.056 145.056c0 80.288-64.8 145.088-145.056 145.088z" />
<glyph unicode="&#xe926;" glyph-name="sci-poster" d="M230.4 611.657c0 6.4 6.4 6.4 6.4 6.4 6.4 0 6.4 0 6.4-6.4 0 0 0 0 0 0 0-6.4-6.4-6.4-6.4-6.4s-6.4 0-6.4 6.4c0 0 0 0 0 0zM243.2 624.457c0 6.4 6.4 6.4 6.4 6.4 6.4 0 12.8-6.4 12.8-6.4s-6.4-12.8-12.8-12.8c0 0-6.4 6.4-6.4 12.8v0 0zM256 637.257c0 6.4 6.4 6.4 6.4 6.4s6.4-6.4 6.4-6.4 0-6.4-6.4-6.4-6.4 0-6.4 6.4zM249.6 598.857c0 6.4 0 6.4 6.4 6.4 0 0 0 0 0 0 6.4 0 6.4-6.4 6.4-6.4 0-6.4-6.4-6.4-6.4-6.4s0 0 0 0c-6.4-6.4-6.4 0-6.4 6.4v0 0zM256 605.257c0 6.4 6.4 6.4 6.4 6.4v0c6.4 0 6.4-6.4 6.4-6.4s0-6.4-6.4-6.4-6.4 0-6.4 6.4v0zM192 886.857v-896h384c89.6 0 256 166.4 256 192v704h-640zM224 861.257h582.4v-620.8h-582.4v620.8zM364.8 22.857h-140.8v192h140.8v-192zM531.2 22.857h-147.2v192h140.8v-192zM569.6 16.457l121.6 185.6c32-32 83.2-38.4 121.6-12.8 19.2 6.4-160-172.8-243.2-172.8zM288.835 528.611l39.706 32.323 12.121-14.89-39.706-32.323-12.121 14.89zM390.4 592.457h211.2v-12.8h-211.2v12.8zM640 554.057h12.8v-70.4h-12.8v70.4zM389.439 545.601l12.284 14.755 34.429-28.663-12.284-14.755-34.429 28.663zM453.38 468.134l12.417 3.104 13.968-55.878-12.417-3.104-13.968 55.878zM492.8 413.257l6.4-12.8 44.8 25.6-12.8 19.2zM684.8 477.257l6.4-12.8 38.4 32-6.4 12.8zM646.4 624.457l-57.6 32-6.4-19.2 57.6-25.6zM576 509.257l25.6-44.8 12.8 12.8-25.6 38.4zM364.8 586.057c0 0 0 0 0 0-12.8 0-25.6-6.4-25.6-25.6 0 0 0 0 0 0 0-12.8 12.8-25.6 25.6-25.6s25.6 6.4 25.6 25.6c0 19.2-12.8 25.6-25.6 25.6zM646.4 611.657c-12.8 0-25.6-6.4-25.6-25.6 0-12.8 12.8-25.6 25.6-25.6s25.6 12.8 25.6 25.6c0 0 0 0 0 0 6.4 12.8-6.4 25.6-25.6 25.6zM646.4 464.457c-12.8 0-25.6-12.8-25.6-25.6s12.8-25.6 25.6-25.6c0 0 0 0 0 0 12.8 0 25.6 12.8 25.6 25.6s-12.8 25.6-25.6 25.6zM454.4 400.457c-6.4 0-12.8 0-19.2-6.4 6.4 0 6.4 6.4 6.4 12.8s-12.8 12.8-25.6 12.8-25.6-6.4-25.6-19.2c0-6.4 12.8-19.2 25.6-19.2 6.4 0 12.8 0 19.2 6.4-6.4 0-6.4-6.4-6.4-12.8 0 0 0 0 0 0 0-12.8 12.8-25.6 25.6-25.6 0 0 6.4 0 6.4 0 12.8 0 19.2 12.8 19.2 25.6s-12.8 25.6-25.6 25.6zM512 528.457c0 6.4-12.8 19.2-25.6 19.2s-25.6-6.4-25.6-19.2c0 0 0-6.4 6.4-6.4 0 0-6.4 0-6.4 0s0 0 0 0c-12.8 0-25.6-6.4-25.6-25.6 0 0 0 0 0 0 0-12.8 12.8-25.6 25.6-25.6s25.6 6.4 25.6 25.6c0 6.4-6.4 12.8-6.4 12.8 6.4 0 6.4 0 12.8 0s19.2 6.4 19.2 19.2zM569.6 464.457c-12.8 0-25.6-12.8-25.6-25.6s6.4-25.6 19.2-25.6c12.8 0 25.6 12.8 19.2 25.6 6.4 12.8 0 25.6-12.8 25.6zM736 554.057c-12.8 0-25.6-12.8-19.2-25.6 0-12.8 6.4-25.6 19.2-25.6s25.6 12.8 19.2 25.6c6.4 12.8 0 25.6-19.2 25.6zM499.2 662.857h76.8v-25.6h-76.8v25.6zM537.6 547.657h76.8v-25.6h-76.8v25.6zM646.4 701.257c0 0 0 0 0 0 6.4 0 6.4 0 0 0 6.4 0 6.4-6.4 12.8-6.4s6.4 6.4 6.4 6.4-6.4 6.4-6.4 6.4c0 0-6.4 0-6.4 0 0 6.4-6.4 6.4-6.4 6.4-6.4 0-6.4-6.4-6.4-6.4s6.4-6.4 6.4-6.4zM627.2 701.257c6.4 0 6.4 6.4 6.4 6.4 0 6.4-6.4 6.4-6.4 6.4-6.4 0-6.4-6.4-6.4-6.4s6.4-6.4 6.4-6.4zM345.6 669.257c-6.4 0-6.4-6.4-6.4-6.4 0-6.4 6.4-6.4 6.4-6.4 6.4 0 6.4 6.4 6.4 6.4 0 6.4 0 6.4-6.4 6.4zM364.8 662.857c0 0 0 0 0 0 6.4 0 6.4 6.4 6.4 6.4s6.4 0 6.4 0c0 0 6.4 0 6.4 6.4s0 6.4-6.4 6.4c0 0 0 0 0 0-6.4 0-6.4-6.4-6.4-6.4v0c0 0-6.4 0-6.4 0-6.4 0-6.4-6.4-6.4-6.4s0-6.4 6.4-6.4zM518.4 701.257c0 0-6.4 0-6.4-6.4 0 6.4-6.4 6.4-6.4 6.4-6.4 0-6.4 0-6.4-6.4s6.4-6.4 6.4-6.4c0 0 6.4 0 6.4 6.4 0-6.4 6.4-6.4 6.4-6.4 6.4 0 6.4 6.4 6.4 6.4 6.4 6.4 0 6.4-6.4 6.4zM390.4 688.457c0 0-6.4-6.4-6.4-6.4 0-6.4 6.4-6.4 6.4-6.4s0 0 0 0c6.4 0 6.4 6.4 6.4 6.4 6.4 0 0 6.4-6.4 6.4zM409.6 688.457c-6.4 0-6.4-6.4-6.4-6.4 0-6.4 6.4-6.4 6.4-6.4s0 0 0 0c6.4 0 6.4 6.4 6.4 6.4 0 6.4 0 12.8-6.4 6.4zM422.4 675.657c6.4 0 6.4 6.4 6.4 6.4s6.4-6.4 6.4-6.4c0 0 0 0 0 0 6.4 6.4 12.8 6.4 12.8 12.8s-6.4 12.8-6.4 12.8c0 0 0 0 0 0-6.4 0-12.8-6.4-12.8-12.8v0c0 6.4 0 6.4-6.4 6.4 0 0-6.4-6.4-6.4-6.4 0-6.4 6.4-12.8 6.4-12.8zM460.8 688.457c0-3.535-2.865-6.4-6.4-6.4s-6.4 2.865-6.4 6.4c0 3.535 2.865 6.4 6.4 6.4s6.4-2.865 6.4-6.4zM473.6 688.457c6.4 0 6.4 0 6.4 6.4 0-6.4 6.4-6.4 6.4-6.4 6.4 0 6.4 6.4 6.4 6.4s0 0 0 0c0 6.4-6.4 6.4-6.4 6.4s0 0 0 0c-6.4 0-6.4 0-6.4-6.4 0 0-6.4 6.4-6.4 6.4-6.4 0-12.8 0-12.8-6.4s6.4-6.4 12.8-6.4zM544 694.857c0 6.4-6.4 6.4-6.4 6.4-6.4 0-6.4 0-6.4-6.4s6.4-6.4 6.4-6.4 6.4 0 6.4 6.4zM556.8 688.457c6.4 0 6.4 6.4 6.4 6.4 0 6.4-6.4 6.4-6.4 6.4-6.4 0-12.8 0-12.8-6.4s6.4-6.4 12.8-6.4zM582.4 694.857c0 6.4-6.4 6.4-6.4 6.4s-12.8 0-12.8-6.4c0-6.4 6.4-6.4 6.4-6.4s12.8 0 12.8 6.4zM588.8 688.457c6.4 0 6.4 6.4 6.4 6.4 0 6.4-6.4 6.4-6.4 6.4-6.4 0-6.4 0-6.4-6.4s0-6.4 6.4-6.4zM633.6 688.457c0 0-6.4 6.4-12.8 6.4 0 0-6.4-6.4-6.4-6.4s-6.4 6.4-6.4 6.4c-6.4 0-6.4 0-12.8-6.4v0c0-6.4 6.4-6.4 6.4-6.4 6.4 0 6.4 6.4 6.4 6.4 0-6.4 6.4-6.4 6.4-6.4s0 0 0 0c12.8-6.4 12.8 0 19.2 6.4 0-6.4 0-12.8 6.4-12.8s6.4 6.4 6.4 6.4-6.4 6.4-6.4 6.4-6.4 0-6.4 0zM748.8 630.857c6.4 0 6.4 6.4 6.4 6.4s-6.4 6.4-6.4 6.4c-6.4 0-6.4-6.4-6.4-6.4s0-6.4 6.4-6.4zM723.2 656.457c0-3.535-2.865-6.4-6.4-6.4s-6.4 2.865-6.4 6.4c0 3.535 2.865 6.4 6.4 6.4s6.4-2.865 6.4-6.4zM704 675.657c-6.4 0-6.4-6.4-6.4-6.4v0c0-6.4 6.4-6.4 6.4-6.4 6.4 0 6.4 6.4 6.4 6.4s0 6.4-6.4 6.4zM729.6 637.257c6.4 0 6.4 6.4 6.4 6.4s0 0 0 0c0 6.4-6.4 6.4-6.4 6.4-6.4 0-6.4-6.4-6.4-6.4s0 0 0 0 0-6.4 6.4-6.4zM652.8 669.257c6.4 0 6.4 6.4 6.4 6.4 0 6.4-6.4 6.4-6.4 6.4s0 0 0 0c-6.4 0-6.4-6.4-6.4-6.4s0 0 0 0 6.4-6.4 6.4-6.4zM672 662.857c0 0 0 6.4 0 0 6.4 0 6.4 6.4 6.4 6.4 0 6.4-6.4 6.4-6.4 6.4-6.4 0-6.4-6.4-6.4-6.4s0 0 0 0c-6.4 0 0-6.4 6.4-6.4zM684.8 662.857c6.4 0 6.4 6.4 6.4 6.4 0 6.4-6.4 6.4-6.4 6.4-6.4 0-6.4-6.4-6.4-6.4s6.4-6.4 6.4-6.4c0 0 0 0 0 0zM761.6 637.257c-6.4 0-6.4-6.4-6.4-6.4 0-6.4 6.4-6.4 6.4-6.4 6.4 0 6.4 0 6.4 6.4s0 6.4-6.4 6.4zM320 669.257c6.4 0 6.4 6.4 6.4 6.4 0 6.4-6.4 6.4-6.4 6.4-6.4 0-6.4-6.4-6.4-6.4v0c0 0 0-6.4 6.4-6.4zM332.8 675.657c6.4 0 6.4 6.4 6.4 6.4 0 6.4 0 12.8-6.4 12.8s-6.4-6.4-6.4-6.4 0-12.8 6.4-12.8zM352 682.057c0 0 0 0 0 0 6.4 0 6.4 6.4 6.4 6.4s0 0 0 0 6.4-6.4 6.4-6.4c0 0 0 0 0 0 6.4 0 6.4 6.4 6.4 6.4s0 0 0 0c0 6.4-6.4 6.4-6.4 6.4-6.4 6.4-6.4 6.4-6.4 0 0 0 0 0 0 0 0 6.4-6.4 6.4-6.4 6.4-6.4 0-12.8-6.4-12.8-12.8 0 0 6.4-6.4 12.8-6.4zM384 694.857c0 0 6.4 0 6.4 6.4 0 0 6.4-6.4 6.4-6.4s0 0 0 0c6.4 0 6.4 6.4 6.4 6.4s0 12.8-6.4 12.8c-6.4 0-6.4-6.4-6.4-6.4-6.4 0-6.4 0-6.4 0-6.4 0-6.4-6.4-6.4-6.4-6.4-6.4 0-6.4 6.4-6.4zM416 707.657c0-3.535-2.865-6.4-6.4-6.4s-6.4 2.865-6.4 6.4c0 3.535 2.865 6.4 6.4 6.4s6.4-2.865 6.4-6.4zM428.8 707.657c6.4 0 6.4 6.4 6.4 6.4 0 6.4-6.4 6.4-6.4 6.4-6.4 0-6.4-6.4-6.4-6.4 0-6.4 0-6.4 6.4-6.4zM448 707.657c0 0 0 0 0 0s6.4 0 6.4 6.4c0 0 6.4 0 6.4 0 6.4 0 6.4 6.4 6.4 6.4 0-6.4 6.4-6.4 6.4-6.4 6.4 0 6.4 6.4 6.4 6.4 0 6.4-6.4 6.4-6.4 6.4-6.4 0-6.4-6.4-6.4-6.4 0 6.4-6.4 6.4-6.4 6.4s-6.4 0-6.4-6.4c0 0-6.4 0-6.4 0s0 0-6.4 0-6.4-6.4-6.4-6.4v0c6.4 0 6.4-6.4 12.8-6.4zM492.8 714.057c6.4 0 6.4 6.4 6.4 6.4s0 0 0 0v0c0-6.4 6.4-6.4 6.4-6.4 6.4 0 6.4 0 6.4 6.4 0-6.4 6.4-6.4 6.4-6.4 6.4 0 6.4 6.4 6.4 6.4s0 0 0 0c0 6.4-6.4 6.4-6.4 6.4-6.4 0-6.4 0-6.4-6.4 0 6.4-6.4 6.4-6.4 6.4s0 0 0 0c-6.4 0-6.4-6.4-6.4-6.4 0 6.4-6.4 6.4-6.4 6.4-6.4 0-6.4-6.4-6.4-6.4s0-6.4 6.4-6.4zM563.2 714.057c6.4 0 6.4 0 6.4 6.4 0-6.4 6.4-6.4 6.4-6.4s0 0 0 0c6.4 0 6.4 6.4 6.4 6.4 0 6.4-6.4 6.4-6.4 6.4s-6.4 0-6.4-6.4v0c0 0 0 0 0 0 0 6.4-6.4 6.4-6.4 6.4-6.4 0-6.4-6.4-6.4-6.4s0-6.4 6.4-6.4zM672 701.257c0-6.4 6.4-6.4 6.4-6.4s6.4 0 6.4 6.4c0-6.4 6.4-6.4 6.4-6.4 6.4-6.4 12.8-6.4 12.8 0s-6.4 6.4-6.4 6.4c0 0-6.4 0-6.4-6.4 0 6.4-6.4 6.4-6.4 6.4s0 0 0 0c-12.8 6.4-12.8 0-12.8 0s0 0 0 0zM697.6 688.457c0-6.4 6.4-6.4 6.4-6.4s0 0 0 0c6.4 0 6.4 6.4 6.4 6.4 0 6.4-6.4 6.4-6.4 6.4s0 0-6.4-6.4v0zM729.6 682.057c0-3.535-2.865-6.4-6.4-6.4s-6.4 2.865-6.4 6.4c0 3.535 2.865 6.4 6.4 6.4s6.4-2.865 6.4-6.4zM729.6 675.657c0-6.4 6.4-6.4 6.4-6.4 6.4 0 6.4 6.4 6.4 6.4 0 6.4-6.4 6.4-6.4 6.4s0 0 0 0-6.4 0-6.4-6.4c0 0 0 0 0 0zM761.6 662.857c0-3.535-2.865-6.4-6.4-6.4s-6.4 2.865-6.4 6.4c0 3.535 2.865 6.4 6.4 6.4s6.4-2.865 6.4-6.4zM768 662.857c-6.4 0-6.4-6.4-6.4-6.4s6.4-6.4 6.4-6.4c6.4 0 6.4 6.4 6.4 6.4s0 6.4-6.4 6.4zM550.4 720.457c0-3.535-2.865-6.4-6.4-6.4s-6.4 2.865-6.4 6.4c0 3.535 2.865 6.4 6.4 6.4s6.4-2.865 6.4-6.4zM601.6 714.057c0-3.535-2.865-6.4-6.4-6.4s-6.4 2.865-6.4 6.4c0 3.535 2.865 6.4 6.4 6.4s6.4-2.865 6.4-6.4zM614.4 707.657c0 0 0 0 0 0 6.4 0 6.4 6.4 6.4 6.4 0 6.4-6.4 6.4-6.4 6.4s0 0 0 0c-6.4 0-6.4-6.4-6.4-6.4-6.4-6.4 0-6.4 6.4-6.4zM275.2 643.657c6.4 0 6.4 6.4 6.4 6.4 0 6.4-6.4 6.4-6.4 6.4s-6.4 0-6.4-6.4c0 0 0 0 0 0 0-6.4 0-12.8 6.4-6.4 0-6.4 0 0 0 0zM288 650.057c6.4 0 6.4 6.4 6.4 6.4 0 6.4-6.4 6.4-6.4 6.4-6.4 0-6.4-6.4-6.4-6.4s6.4-6.4 6.4-6.4zM300.8 656.457c6.4 0 6.4 6.4 6.4 6.4s0 0 0 0c0 6.4-6.4 6.4-6.4 6.4-6.4 0-6.4-6.4-6.4-6.4s6.4-6.4 6.4-6.4zM281.6 624.457c-6.4 0-6.4-6.4-6.4-6.4s0 0 0 0c0-6.4 6.4-6.4 6.4-6.4s0 0 0 0c6.4 0 6.4 6.4 6.4 6.4 0 6.4-6.4 6.4-6.4 6.4zM300.8 630.857c0 0 0 0 0 0 12.8 0 12.8 0 12.8 6.4 0 0 0 0 0 0s6.4 0 6.4 0 6.4 6.4 6.4 6.4c0 0 0 0 0 0s0 0 6.4 0 6.4 6.4 6.4 6.4-6.4 6.4-6.4 6.4-12.8 0-12.8 0c0 0 0 0 0 0s0 0-6.4 0-6.4-6.4-6.4-6.4c0 0 0 0 0 0s-6.4 0-6.4 0-6.4-6.4-6.4-6.4c0 0-6.4 0-6.4 0 0-6.4-6.4-6.4-6.4-12.8s6.4-6.4 6.4-6.4 12.8 0 12.8 6.4z" />
<glyph unicode="&#xe927;" glyph-name="product-list" d="M550.4 406.857v0 0 0zM960 637.257v89.6c0 12.8-6.4 25.6-19.2 38.4v96h-857.6v-89.6c-12.8-12.8-19.2-25.6-19.2-44.8v-96c0-12.8 6.4-25.6 19.2-38.4v-76.8c-12.8-6.4-19.2-19.2-19.2-32v-96c0-12.8 6.4-25.6 19.2-32v-76.8c-12.8-12.8-19.2-25.6-19.2-38.4v-96c0-12.8 6.4-25.6 19.2-38.4v-89.6h864v89.6c12.8 6.4 19.2 19.2 19.2 38.4v96c0 12.8-6.4 25.6-19.2 38.4v76.8c6.4 6.4 12.8 19.2 12.8 38.4v89.6c0 12.8-6.4 25.6-19.2 38.4v76.8c12.8 12.8 19.2 25.6 19.2 38.4zM115.2 829.257h800v-51.2c0 0 0 0 0 0h-800c0 0 0 0 0 0v51.2zM249.6 720.457v-70.4h-121.6v70.4h121.6zM115.2 586.057c0 0 0 0 0 0h800c0 0 0 0 0 0v-57.6c0 0 0 0 0 0h-800c0 0 0 0 0 0v57.6zM249.6 477.257v-70.4h-121.6v70.4h121.6zM908.8 48.457h-793.6v51.2c0 0 0 0 0 0h800c0 0 0 0 0 0v-51.2zM128 157.257v70.4h121.6v-70.4h-121.6zM908.8 291.657h-793.6c0 0 0 0 0 0v51.2c0 0 0 0 0 0h800c0 0 0 0 0 0l-6.4-51.2c0 0 0 0 0 0z" />
<glyph unicode="&#xe928;" glyph-name="proteomics-services" d="M908.8 694.857v32h-140.8v121.6h-32v-121.6h-147.2v121.6h-25.6v-121.6h-108.8c-12.8 6.4-19.2 19.2-32 25.6v96h-32v-96c-19.2-6.4-32-12.8-38.4-25.6h-102.4v121.6h-32v-121.6h-121.6v-32h121.6v-140.8h-121.6v-32h121.6v-134.4c-6.4 0-12.8 0-19.2-6.4h-102.4v-32h76.8c0-6.4-6.4-12.8-6.4-19.2 0-32 19.2-51.2 51.2-57.6v-57.6h-121.6v-32h121.6v-140.8h32v140.8h140.8v-140.8h32v140.8h89.6c0-25.6 19.2-51.2 44.8-57.6v-89.6h32v89.6c25.6 6.4 38.4 32 38.4 57.6h96v-140.8h32v140.8h140.8v32h-140.8v134.4h140.8v32h-140.8v83.2c25.6 6.4 38.4 32 38.4 57.6h102.4v32h-115.2c-6.4 12.8-19.2 19.2-32 25.6v115.2h160zM684.8 522.057c0-19.2 6.4-32 19.2-44.8l-44.8-96h-64v140.8h89.6zM563.2 266.057l-32 83.2h25.6v-83.2zM588.8 349.257h51.2l-44.8-96v96zM563.2 381.257h-38.4l-51.2 140.8h83.2v-140.8zM422.4 586.057l12.8-32h-12.8v32zM390.4 554.057h-38.4l38.4 76.8v-76.8zM390.4 522.057v-140.8h-115.2l64 140.8h51.2zM422.4 522.057h19.2l44.8-140.8h-64v140.8zM467.2 554.057l-32 89.6c12.8 12.8 25.6 25.6 25.6 51.2h96v-140.8h-89.6zM249.6 694.857h89.6c0-19.2 6.4-32 19.2-44.8l-38.4-96h-64v140.8zM300.8 522.057l-51.2-108.8v108.8h51.2zM249.6 214.857v64c25.6 6.4 38.4 32 38.4 57.6 0 6.4 0 12.8-6.4 19.2h102.4v-140.8h-134.4zM422.4 349.257h76.8l38.4-121.6c-6.4-6.4-12.8-12.8-19.2-19.2h-96v140.8zM729.6 214.857h-108.8c0 6.4-6.4 12.8-12.8 12.8l64 121.6h57.6v-134.4zM691.2 381.257l38.4 83.2v-83.2h-38.4zM729.6 579.657c-19.2-6.4-32-12.8-38.4-25.6h-102.4v140.8h140.8v-115.2z" />
<glyph unicode="&#xe929;" glyph-name="protocols" d="M550.4 406.857v0 0 0zM147.2 522.057c-44.8 0-83.2-38.4-83.2-83.2s38.4-83.2 83.2-83.2c44.8 0 83.2 38.4 83.2 83.2s-38.4 83.2-83.2 83.2c0 0 0 0 0 0zM147.2 803.657c-44.8 0-83.2-38.4-83.2-83.2s38.4-89.6 83.2-83.2c44.8 0 83.2 38.4 83.2 83.2s-38.4 83.2-83.2 83.2c0 0 0 0 0 0zM147.2 240.457c-44.8 0-83.2-38.4-83.2-83.2s38.4-83.2 83.2-83.2c44.8 0 83.2 38.4 83.2 83.2 0 51.2-38.4 83.2-83.2 83.2 0 6.4 0 0 0 0zM313.6 778.057h614.4c12.8 0 25.6-12.8 25.6-25.6v-70.4c0-12.8-12.8-25.6-25.6-25.6h-614.4c-12.8 0-25.6 12.8-25.6 25.6v70.4c0 12.8 12.8 25.6 25.6 25.6zM313.6 502.857h614.4c19.2 0 32-12.8 32-32v-70.4c0-12.8-12.8-25.6-25.6-25.6h-620.8c-12.8 0-25.6 12.8-25.6 32v64c0 19.2 12.8 32 25.6 32zM313.6 221.257h614.4c12.8 0 25.6-12.8 25.6-25.6v-70.4c0-12.8-12.8-25.6-25.6-25.6h-614.4c-12.8 0-25.6 12.8-25.6 25.6v70.4c0 12.8 12.8 25.6 25.6 25.6z" />
<glyph unicode="&#xe92a;" glyph-name="phosphosite" d="M550.4 406.857v0 0 0zM518.4 893.257c-249.6 0-448-198.4-448-448s198.4-448 448-448 448 198.4 448 448v0c0 249.6-198.4 448-448 448zM710.4 605.257c-70.4-83.2-153.6-160-249.6-217.6-134.4-89.6-64 38.4-64 38.4s64 102.4 115.2 192 0 64 0 64c-339.2-185.6-108.8-492.8-108.8-492.8 32-51.2 64-102.4 89.6-160 19.2-51.2-19.2-12.8-19.2-12.8-83.2 76.8-153.6 172.8-198.4 275.2-172.8 403.2 192 595.2 377.6 569.6s89.6-211.2 57.6-256v0z" />
<glyph unicode="&#xe92b;" glyph-name="publications" d="M857.6 682.057v217.6h-761.6v-838.4h134.4v-70.4h691.2v691.2h-64zM793.6 682.057v-556.8h-563.2v710.4h556.8v-153.6zM313.6 694.857h364.8v-64h-364.8v64zM313.6 573.257h364.8v-64h-364.8v64z" />
<glyph unicode="&#xe92c;" glyph-name="reference-tables" d="M51.2 707.657v-537.6h928v537.6h-928zM345.6 362.057v153.6h339.2v-153.6h-339.2zM678.4 330.057v-128h-332.8v128h332.8zM345.6 547.657v128h339.2v-128h-339.2zM76.8 675.657h230.4v-128h-230.4v128zM76.8 515.657h230.4v-153.6h-230.4v153.6zM76.8 330.057h230.4v-128h-230.4v128zM947.2 202.057h-230.4v128h230.4v-128zM947.2 362.057h-230.4v153.6h230.4v-153.6zM710.4 547.657v128h230.4v-128h-230.4z" />
<glyph unicode="&#xe92d;" glyph-name="sds" d="M736 662.857l-224-224-224 224-224-224 224-224 224 224 224-224 224 224-224 224zM288 266.057l-166.4 172.8 172.8 172.8 166.4-172.8-172.8-172.8zM563.2 438.857l172.8 172.8 172.8-172.8-172.8-172.8-172.8 172.8zM311.684 189.075l199.148 199.091 199.091-199.148-199.148-199.091-199.091 199.148zM313.964 688.787l199.091 199.148 199.148-199.091-199.091-199.148-199.148 199.091z" />
<glyph unicode="&#xe92e;" glyph-name="validation" d="M928 746.057c-38.4 38.4-102.4 38.4-140.8 0l-403.2-403.2-153.6 147.2c0 0 0 0 0 0-38.4 38.4-102.4 38.4-134.4 0-38.4-38.4-38.4-102.4 0-140.8l198.4-192c0 0 0 0 0 0 6.4-6.4 12.8-6.4 12.8-12.8 6.4-6.4 6.4-12.8 12.8-19.2 38.4-38.4 102.4-38.4 140.8 0l473.6 473.6c32 44.8 32 108.8-6.4 147.2z" />
<glyph unicode="&#xe92f;" glyph-name="validation-circle" d="M512 886.857c-249.6 0-448-198.4-448-448s198.4-448 448-448 448 198.4 448 448-198.4 448-448 448zM512 803.657c204.8 0 364.8-166.4 364.8-364.8s-166.4-364.8-364.8-364.8-364.8 160-364.8 364.8v0c0 204.8 160 364.8 364.8 364.8 0 0 0 0 0 0zM793.6 547.657l-38.4 44.8c-6.4 6.4-19.2 6.4-32 0 0 0 0 0 0 0l-262.4-256-115.2 108.8c-6.4 6.4-19.2 6.4-32 0 0 0 0 0 0 0l-38.4-44.8c-6.4-6.4-6.4-19.2 0-25.6l166.4-172.8c6.4-6.4 19.2-6.4 32 0l320 320c6.4 6.4 6.4 25.6 0 25.6v0z" />
<glyph unicode="&#xe930;" glyph-name="video-play" d="M278.62 760.511v-643.31l305.655 158.897 303.448 163.31-297.931 163.31-311.172 157.793zM554.482 334.58l-209.655-108.138v425.931l215.172-109.241 189.793-103.724-195.31-104.828zM512.551-65.971c-278.069 0-505.379 226.207-505.379 505.379 0 278.069 227.31 504.276 505.379 504.276s504.276-226.207 504.276-504.276c-1.103-278.069-227.31-504.276-504.276-505.379zM512.551 877.477c-241.655 0-439.172-197.517-439.172-438.069s196.414-438.069 438.069-438.069c241.655 0 438.069 196.414 438.069 438.069 1.103 241.655-195.31 438.069-436.966 438.069z" />
<glyph unicode="&#xe931;" glyph-name="webinars" d="M819.2 502.857h153.6v339.2h-556.8v-179.2h-108.8c0 0 0 0 0 0-25.6 0-51.2-19.2-51.2-44.8v-230.4c0-25.6 19.2-44.8 51.2-51.2h377.6c25.6 0 44.8 19.2 51.2 51.2v115.2h51.2v-230.4c0-6.4-6.4-12.8-12.8-12.8h-550.4c-6.4 0-12.8 6.4-12.8 12.8v435.2c0 6.4 6.4 12.8 12.8 12.8h192v32h-192c-32 0-51.2-19.2-51.2-44.8v-435.2c0-6.4 0-6.4 0-12.8h-70.4c-25.6 0-51.2-19.2-51.2-51.2v-89.6c0-25.6 19.2-51.2 51.2-51.2h787.2c25.6 0 51.2 19.2 51.2 51.2v89.6c0 25.6-19.2 51.2-51.2 51.2h-70.4c0 6.4 0 6.4 0 12.8v230.4zM473.6 778.057h435.2v-25.6h-435.2v25.6zM473.6 694.857h435.2v-32h-435.2v32zM473.6 605.257h435.2v-32h-435.2v32zM697.6 387.657c0-6.4-6.4-12.8-12.8-12.8h-377.6c-6.4 0-12.8 6.4-12.8 12.8v230.4c6.4 6.4 6.4 12.8 12.8 12.8 0 0 0 0 0 0h108.8v-211.2l96 83.2h185.6v-115.2zM889.6 221.257c6.4 0 12.8-6.4 12.8-12.8v-89.6c0-6.4-6.4-12.8-12.8-12.8h-787.2c-6.4 0-12.8 6.4-12.8 12.8v89.6c0 6.4 6.4 12.8 12.8 12.8h787.2z" />
<glyph unicode="&#xe932;" glyph-name="webinars2" d="M928 304.457h-76.8c0 6.4 0 6.4 0 12.8v467.2c0 25.6-19.2 51.2-51.2 51.2h-582.4c-25.6-6.4-51.2-25.6-51.2-51.2v-460.8c0-6.4 0-6.4 0-12.8h-70.4c-25.6 0-51.2-19.2-51.2-51.2v-96c0-25.6 19.2-51.2 51.2-51.2h832c25.6 0 51.2 19.2 51.2 51.2v96c0 25.6-19.2 44.8-51.2 44.8zM204.8 317.257v467.2c0 6.4 6.4 12.8 12.8 12.8h588.8c6.4 0 12.8-6.4 12.8-12.8v-460.8c0-6.4-6.4-12.8-12.8-12.8h-588.8c-6.4 0-12.8 0-12.8 6.4zM940.8 163.657c0-6.4-6.4-12.8-12.8-12.8h-832c-6.4 0-12.8 6.4-12.8 12.8v96c0 6.4 6.4 12.8 12.8 12.8h121.6c0 0 0 0 6.4 0h588.8c0 0 0 0 6.4 0h121.6c6.4 0 12.8-6.4 12.8-12.8v-96zM710.4 739.657h-396.8c-25.6 0-51.2-19.2-51.2-51.2v-249.6c0-25.6 19.2-51.2 51.2-51.2h403.2c25.6 0 51.2 19.2 51.2 51.2v249.6c-6.4 32-25.6 51.2-57.6 51.2zM723.2 445.257c0-6.4-6.4-12.8-12.8-12.8h-396.8c-6.4 0-12.8 6.4-12.8 12.8v243.2c0 6.4 6.4 12.8 12.8 12.8h403.2c6.4 0 12.8-6.4 12.8-12.8v-243.2z" />
<glyph unicode="&#xe933;" glyph-name="web-resources" d="M550.4 406.857v0 0 0zM480 880.457c-217.6 0-403.2-172.8-416-390.4 0-19.2 0-32 0-51.2 6.4-249.6 217.6-448 467.2-441.6 556.8-6.4 601.6 915.2-51.2 883.2zM806.4 682.057c-6.4-19.2-38.4 0-38.4-19.2-25.6 19.2-44.8 57.6-51.2 89.6 32-19.2 64-44.8 89.6-70.4zM588.8 797.257c76.8-19.2 96-70.4 115.2-134.4-51.2 12.8-76.8-12.8-134.4 6.4l19.2 128zM569.6 630.857c44.8-12.8 89.6-12.8 134.4-6.4 51.2-25.6 25.6-121.6 32-185.6l-192 25.6c6.4 57.6 19.2 108.8 25.6 166.4zM537.6 413.257l192-25.6c-12.8-57.6-32-115.2-57.6-172.8-51.2 19.2-102.4 32-153.6 32 6.4 57.6 12.8 115.2 19.2 166.4zM499.2 470.857l-192 25.6c25.6 51.2 32 128 64 172.8 57.6-6.4 89.6-32 153.6-32-6.4-57.6-12.8-115.2-25.6-166.4zM544 797.257l-19.2-128c-51.2 0-70.4 32-128 32 25.6 57.6 83.2 96 147.2 96zM422.4 790.857c-19.2-25.6-51.2-32-57.6-76.8-12.8 12.8-32 19.2-51.2 19.2 19.2 44.8 64 51.2 108.8 57.6zM339.2 682.057c-32-57.6-51.2-115.2-64-185.6l-121.6 19.2c25.6 102.4 83.2 249.6 185.6 166.4zM224 240.457c-64 44.8-76.8 134.4-76.8 230.4l115.2-19.2c-6.4-64 0-128 12.8-192-6.4-19.2-44.8 0-51.2-19.2zM320 131.657c-25.6 25.6-70.4 38.4-70.4 83.2 0 0 0 0 0 0v0c0 0 0 0 0 0 19.2-6.4 25.6 12.8 51.2 6.4-12.8-44.8 25.6-51.2 19.2-89.6zM448 93.257c-76.8 12.8-83.2 76.8-115.2 121.6 44.8 12.8 89.6 19.2 134.4 6.4l-19.2-128zM467.2 253.257c-51.2 6.4-102.4 12.8-153.6 6.4-12.8 51.2 0 115.2-12.8 172.8 44.8 25.6 134.4-12.8 192-12.8-6.4-51.2-12.8-108.8-25.6-166.4zM492.8 86.857l19.2 128c44.8-6.4 89.6-12.8 128-32-25.6-57.6-83.2-96-147.2-96zM640 86.857v0c-12.8 32 51.2 102.4 89.6 57.6-19.2-32-64-32-89.6-57.6zM768 163.657c-19.2 12.8-44.8 25.6-70.4 32v0c32 57.6 51.2 115.2 57.6 179.2l115.2-12.8c0-76.8-38.4-147.2-102.4-198.4zM768 432.457c12.8 57.6 6.4 121.6-12.8 179.2 108.8 76.8 140.8-89.6 128-198.4l-115.2 19.2z" />
<glyph unicode="&#xe934;" glyph-name="white-paper" d="M288 605.257h448v-38.4h-448v38.4zM288 726.857h448v-38.4h-448v38.4zM288 490.057h448v-38.4h-448v38.4zM288 278.857h448v-38.4h-448v38.4zM134.4 906.057v-934.4h755.2v934.4h-755.2zM851.2 10.057h-678.4v857.6h678.4v-857.6z" />
<glyph unicode="&#xe935;" glyph-name="mag-angiogenesis" d="M620.8 502.857c0 0 0 0 0 0s0 0 0 0v0zM499.2 349.257c44.8-38.4 38.4-32 76.8-76.8 0 6.4 0 12.8 0 19.2-44.8 51.2-38.4 38.4-83.2 76.8 0 0 0 0 0 0 0 6.4-6.4 12.8-6.4 25.6 6.4 0 12.8 0 12.8 0 0-6.4 0-6.4 6.4-6.4 0 0 0 0 0 0v0c32-25.6 70.4-57.6 70.4-57.6l6.4 25.6c0 0-6.4 0-6.4-6.4-19.2 12.8-38.4 25.6-51.2 38.4 0 0 0 0 0 0 12.8 0 25.6-6.4 44.8-6.4 6.4 0 6.4-6.4 12.8-6.4-6.4 0-6.4-6.4 6.4-6.4l6.4 12.8c0 0-25.6 6.4-38.4 6.4 19.2 0 38.4 6.4 44.8 6.4 12.8 19.2 32 32 44.8 44.8-25.6 0-70.4 6.4-96 0-19.2-6.4-44.8-12.8-64-12.8 6.4 0 12.8 6.4 12.8 6.4 25.6 12.8 51.2 25.6 76.8 44.8 0 0 0 0 0 0v0c0 0 0 0 0 0 25.6 0 51.2-6.4 76.8-12.8 6.4 0 12.8 0 19.2 0 0 0 0 0 0 0l6.4-6.4c6.4 0 6.4 0 12.8 6.4l-6.4 6.4c12.8 0 19.2 0 32 0 6.4 0 6.4 6.4 6.4 6.4s0 6.4-6.4 6.4c-25.6-6.4-57.6-6.4-83.2 0-6.4 0-25.6 0-38.4 0 6.4 6.4 12.8 12.8 25.6 19.2 0 0 0 0 0 0 25.6-6.4 51.2-6.4 70.4 6.4 19.2 6.4 32 12.8 51.2 19.2 6.4-6.4 19.2-6.4 25.6-12.8s12.8 6.4 6.4 12.8c-6.4 6.4-12.8 6.4-19.2 6.4 12.8 6.4 32 6.4 44.8-6.4 6.4 0 12.8 6.4 6.4 12.8-19.2 6.4-38.4 6.4-57.6 0 0 0 0 0 0 0s0 0 0 0c-6.4 0-6.4 0-6.4-6.4-32-19.2-70.4-25.6-108.8-25.6 12.8 12.8 32 19.2 44.8 32s25.6 19.2 38.4 25.6c32 0 70.4 0 102.4 12.8 25.6 12.8 0 19.2-12.8 12.8-19.2-6.4-38.4-6.4-57.6-6.4 0 0 6.4 6.4 6.4 6.4 25.6 6.4 44.8 12.8 70.4 19.2 32 12.8 0 19.2-12.8 12.8s-19.2-12.8-32-12.8c6.4 6.4 12.8 19.2 19.2 25.6 0 6.4 0 6.4-6.4 12.8s-6.4 0-12.8-6.4c-32-51.2-89.6-76.8-140.8-108.8-12.8-6.4-32-19.2-44.8-25.6 0 6.4 0 12.8 0 19.2 0 0 0 0 0 0 38.4 32 76.8 64 115.2 89.6 25.6 19.2 44.8 44.8 51.2 76.8 0 6.4-12.8 6.4-12.8 0s0-6.4 0-12.8c0 6.4-38.4 6.4-44.8-6.4 0-6.4-6.4-12.8-12.8-19.2 12.8 25.6 32 57.6 44.8 83.2 0 6.4-6.4 12.8-12.8 6.4-12.8-38.4-44.8-76.8-51.2-115.2-6.4-6.4-12.8-12.8-12.8-19.2s6.4-6.4 12.8-6.4c0 0 0 0 0 0s0 0 0 0c-25.6-19.2-51.2-38.4-76.8-64 0 6.4 0 6.4 0 12.8 0 0 0 0 0 0v6.4c19.2 25.6 38.4 51.2 44.8 83.2 6.4 19.2 25.6 32 38.4 51.2 6.4 12.8 12.8 32 19.2 51.2 0 6.4-12.8 6.4-12.8 0-6.4-25.6-19.2-44.8-32-64 0 0 0 0 0 0 6.4 25.6 12.8 51.2 12.8 76.8 0 6.4-12.8 6.4-12.8 0 0-25.6-6.4-57.6-19.2-83.2 0 0 0-6.4 6.4-6.4 6.4-6.4 0-12.8-6.4-19.2-12.8-25.6-12.8-57.6-38.4-76.8 0 12.8 0 32 0 44.8 6.4 32 12.8 57.6 12.8 89.6 0 6.4-6.4 6.4-6.4 6.4s-6.4 0-6.4-6.4c0-32-6.4-70.4-12.8-102.4 0-32 0-70.4-6.4-102.4 0 0 0-6.4 0-6.4-19.2-12.8-44.8-25.6-76.8-44.8 0 0 6.4 6.4 6.4 6.4 6.4 0 12.8 0 19.2 6.4 12.8 19.2 25.6 32 38.4 38.4 32 0 19.2 32-6.4 25.6-6.4 0-12.8-6.4-19.2-6.4 6.4 12.8 12.8 19.2 19.2 32 12.8 12.8 12.8 19.2 19.2 32 0 6.4-6.4 12.8-12.8 0-6.4-19.2-25.6-44.8-38.4-64 6.4 25.6 6.4 44.8 19.2 70.4 0 6.4-6.4 12.8-12.8 0-12.8-25.6-19.2-57.6-19.2-89.6-6.4-6.4-12.8-12.8-19.2-25.6-6.4-6.4-6.4-12.8 0-19.2 0 0 0 0 0 0-6.4 6.4-25.6 0-32 0 0 0 0 0-6.4 0 19.2 19.2 32 32 38.4 51.2 0 6.4-38.4 0-44.8-6.4 0-12.8-12.8-25.6-19.2-32-6.4 6.4-19.2 6.4-32 0-6.4 0-19.2-6.4-25.6-12.8 0 6.4 0 6.4-6.4 12.8 0 0 0 0 0 0s6.4 0 6.4 0v0c12.8 12.8 32 19.2 51.2 32 12.8 0 25.6 6.4 25.6 12.8v0c19.2 12.8 44.8 25.6 64 32 6.4 6.4 0 19.2-6.4 19.2-19.2-6.4-38.4-19.2-57.6-25.6 6.4 12.8 12.8 25.6 25.6 32 19.2 6.4 19.2 38.4-6.4 32-6.4 0-12.8-6.4-19.2-12.8-6.4 0-12.8 0-19.2 0s-6.4-6.4-12.8-6.4c6.4 6.4 12.8 19.2 19.2 25.6l6.4 19.2c6.4 6.4 12.8 6.4 0 6.4 25.6 6.4 32 38.4 6.4 32-25.6 0-32-19.2-44.8-38.4 0 0 0 6.4 0 6.4 0 6.4-12.8 6.4-12.8 0 0-12.8 0-25.6-6.4-32 0 0 0-6.4-6.4-12.8 0-6.4-6.4-6.4-6.4-6.4 6.4 38.4 12.8 76.8 0 115.2 0 6.4-12.8 6.4-12.8 0 12.8-51.2 0-102.4 0-153.6-12.8 25.6-25.6 51.2-32 83.2 0 6.4 0 6.4-6.4 12.8 0 0 6.4 0 6.4 6.4h-6.4c0 6.4 0 19.2 0 32 0 6.4-6.4 12.8 0 25.6 0 0 0 6.4-6.4 6.4 0 0-6.4 0-6.4-6.4 0 0 0 0 0 0 0-12.8 0-19.2 6.4-32 0-6.4 0-12.8 0-19.2-6.4 19.2-19.2 32-25.6 38.4s-19.2-6.4-12.8-12.8c25.6-19.2 38.4-44.8 44.8-70.4 0-12.8 6.4-19.2 12.8-25.6-25.6 12.8-38.4 38.4-57.6 64-6.4 0-19.2-6.4-12.8-12.8 25.6-25.6 32-57.6 70.4-70.4 0 0 0 0 6.4 0 6.4-12.8 12.8-25.6 25.6-38.4 0 0 0 0 0 0 0-6.4 0-6.4 0-12.8 0 0 0-6.4-6.4-6.4 0 0 0 0 6.4 0 0-6.4 0-6.4 0-12.8-12.8 12.8-19.2 25.6-25.6 38.4-12.8 12.8-51.2 0-38.4-19.2 19.2-25.6 25.6-51.2 32-83.2 0 0 0-6.4 6.4-6.4-6.4-12.8-12.8-25.6-12.8-44.8 0 0 0-6.4 0-6.4-89.6-51.2-166.4-121.6-256-179.2-6.4-6.4 6.4-38.4 19.2-32 57.6 38.4 115.2 108.8 172.8 147.2 57.6 32 115.2 64 172.8 89.6-19.2-38.4-12.8-83.2-38.4-121.6-6.4-6.4 6.4-12.8 12.8-6.4 12.8 12.8 19.2 32 19.2 51.2 0 25.6 6.4 44.8 12.8 64 6.4-19.2 12.8-38.4 12.8-64 0 0 0 0-6.4 0v0c-12.8-12.8-19.2-32-19.2-57.6-6.4-25.6-12.8-57.6-19.2-76.8 0-6.4 6.4-12.8 12.8-6.4 6.4 19.2 19.2 38.4 19.2 64 0 19.2 0 51.2 12.8 64 0-6.4-6.4-19.2-6.4-25.6-6.4-38.4-6.4-70.4 0-108.8 0-6.4 12.8-6.4 12.8 0-6.4 44.8-6.4 89.6 0 140.8 0 0 0 0 0 6.4 0 0 0 0 0 0 6.4 25.6 0 51.2-12.8 76.8 0 0 0 0 6.4 0v0c6.4 0 12.8 0 12.8 0s0 0 0 0 0 0 0-6.4v0c6.4-19.2 12.8-38.4 19.2-57.6 0-19.2-6.4-38.4-6.4-51.2 6.4-25.6 6.4-51.2 0-76.8 0-6.4 6.4-6.4 12.8 0 6.4 12.8 6.4 32 6.4 44.8 0 0 0 0 0 0 0-25.6 0-51.2 0-76.8 0-6.4 12.8-6.4 12.8 0 0 12.8 0 19.2 0 32 6.4-19.2 6.4-32 12.8-51.2 0-6.4 12.8 0 12.8 6.4-6.4 19.2-12.8 38.4-19.2 57.6 0 12.8 0 25.6 0 44.8 32-38.4 57.6-89.6 76.8-134.4 0-6.4 12.8 0 12.8 6.4-12.8 44.8-32 89.6-64 121.6-19.2 25.6-32 57.6-44.8 89.6zM518.4 406.857c19.2 6.4 38.4 6.4 64 6.4-25.6 0-44.8-6.4-64-6.4-6.4 0-6.4-6.4-12.8-6.4s-6.4 0-12.8 0c12.8 0 19.2 0 25.6 6.4zM748.8 675.657c-6.4-12.8-19.2-25.6-32-38.4 12.8 12.8 25.6 25.6 32 38.4zM396.8 515.657c0 6.4 6.4 6.4 6.4 12.8 0 0 0-6.4-6.4-12.8 6.4 0 6.4-6.4 6.4-6.4s0 0-6.4-6.4c-6.4 0-12.8-6.4-25.6-12.8 0 6.4 6.4 12.8 6.4 19.2 6.4 0 19.2 6.4 19.2 6.4zM371.2 579.657c0-6.4 6.4-12.8 12.8-12.8 0-6.4-6.4-12.8-6.4-19.2s-6.4-12.8-6.4-12.8c0 12.8 0 32 0 44.8zM384 432.457c0-6.4 0-6.4 0 0 6.4-6.4 0-6.4 0-6.4-6.4-6.4-6.4-12.8-12.8-19.2 6.4 12.8 6.4 19.2 12.8 25.6zM403.2 406.857c-6.4 0-12.8 0-19.2-6.4 0 6.4 6.4 12.8 12.8 19.2 0 0 6.4 6.4 6.4 6.4 6.4 0 12.8 0 19.2 0v0c19.2 6.4 44.8 19.2 64 32-6.4-6.4-6.4-12.8-12.8-19.2-25.6-6.4-44.8-19.2-70.4-32zM512 266.057c0-6.4 0-6.4 0-12.8 0 12.8-6.4 25.6-6.4 32 0 0 6.4-6.4 6.4-19.2 0 6.4 0 6.4 0 0 0 6.4 0 6.4 0 0v0zM857.6 227.657c-6.4-19.2-25.6-38.4-44.8-44.8 38.4-38.4 102.4-134.4 147.2-96 25.6 25.6-57.6 96-102.4 140.8zM864 304.457c0 0 0 0 0 0 0 76.8-64 140.8-134.4 140.8-76.8 0-140.8-64-140.8-134.4 0-76.8 64-140.8 134.4-140.8 83.2 0 140.8 57.6 140.8 134.4zM729.6 195.657c-64 0-115.2 51.2-115.2 108.8 0 64 51.2 115.2 108.8 115.2 64 0 115.2-51.2 115.2-108.8 0 0 0 0 0 0 0-64-44.8-115.2-108.8-115.2z" />
<glyph unicode="&#xe936;" glyph-name="mag-antibody-specificity" d="M550.4 406.857v0 0 0zM70.4 803.657h684.8v-230.4c-12.8 0-44.8 12.8-70.4 12.8v140.8c-179.2 6.4-364.8 0-544 0-6.4-121.6 0-256 0-384 96-6.4 204.8 0 300.8 0 0-25.6 6.4-44.8 19.2-70.4h-396.8v524.8c0 0 0 6.4 6.4 6.4zM352 656.457c0-76.8 0-160 0-236.8h-70.4c0 76.8 0 160 0 236.8h70.4zM256 573.257c0-51.2 0-108.8 0-153.6h-76.8c-6.4 44.8 0 102.4 0 153.6h76.8zM454.4 502.857v-83.2h-70.4v83.2h70.4zM563.2 163.657c-102.4-6.4-211.2 0-320 0 0 12.8 12.8 19.2 25.6 32s25.6 25.6 38.4 38.4h166.4c25.6-32 57.6-51.2 89.6-70.4zM652.8 554.057c-96 0-179.2-76.8-179.2-179.2 0-96 76.8-179.2 179.2-179.2 96 0 179.2 76.8 179.2 179.2 0 96-76.8 179.2-179.2 179.2 0 0 0 0 0 0zM652.8 227.657c-83.2 0-147.2 64-147.2 147.2s64 147.2 147.2 147.2c83.2 0 147.2-64 147.2-147.2 0 0 0 0 0 0 0-76.8-64-147.2-147.2-147.2 0 0 0 0 0 0zM761.6 208.457c51.2-51.2 134.4-179.2 192-121.6 32 38.4-76.8 128-134.4 185.6-6.4-25.6-32-51.2-57.6-64z" />
<glyph unicode="&#xe937;" glyph-name="mag-apoptosis" d="M844.8 221.257c-6.4-25.6-25.6-44.8-51.2-51.2 44.8-44.8 115.2-147.2 160-108.8 32 38.4-57.6 115.2-108.8 160zM851.2 310.857c0 0 0 0 0 0 0 83.2-64 153.6-147.2 153.6s-153.6-64-153.6-147.2c0-83.2 64-153.6 147.2-153.6 83.2-6.4 153.6 64 153.6 147.2zM704 189.257c-70.4 0-128 51.2-128 121.6s51.2 128 121.6 128c70.4 0 128-51.2 128-121.6 0 0 0-6.4 0-6.4 0-64-57.6-121.6-121.6-121.6zM684.8 483.657c12.8 19.2 12.8 38.4 12.8 57.6 0 96-102.4 172.8-230.4 172.8 0 0-6.4 0-6.4 0 6.4 6.4 12.8 19.2 19.2 32 0 0 0 0 0 0s6.4 0 6.4 0c12.8 0 25.6 6.4 25.6 19.2s-12.8 25.6-32 25.6c-12.8 0-19.2-6.4-25.6-12.8-12.8 12.8-25.6 25.6-44.8 19.2-32 0-64-19.2-70.4-51.2 6.4-19.2 19.2-38.4 32-44.8-57.6-19.2-102.4-57.6-121.6-96 0 6.4 0 6.4-6.4 12.8-32 32-76.8 32-108.8 0-25.6-25.6-38.4-51.2-44.8-76.8 0 0 0 0 0 0-12.8 6.4-19.2 0-25.6-12.8 0-6.4 6.4-12.8 12.8-12.8s12.8 0 12.8 0c0 0 0-6.4 0-6.4 32-32 76.8-32 108.8 0 12.8 6.4 19.2 19.2 25.6 25.6 6.4-51.2 38.4-96 89.6-128 0 0-6.4 0-6.4 0-32 0-51.2-25.6-51.2-57.6 0-19.2 12.8-38.4 32-44.8-6.4 0-12.8-6.4-12.8-12.8 0-12.8 12.8-19.2 19.2-19.2 12.8 0 19.2 6.4 19.2 19.2 0 0 0 0 0 0s0 6.4-6.4 6.4c32 0 51.2 25.6 51.2 57.6 0 0 0 0 0 0 0 12.8-6.4 25.6-12.8 32 44.8-6.4 83.2-12.8 121.6-12.8 25.6 0 57.6 6.4 83.2 12.8 19.2 51.2 70.4 89.6 134.4 96zM544 483.657v0c-25.6-12.8-51.2-6.4-70.4 0l-25.6-6.4c-12.8 0-19.2 0-32 0-6.4 6.4-6.4 12.8-12.8 19.2h-12.8c0 6.4-6.4 12.8-6.4 12.8-6.4 19.2 0 19.2-19.2 12.8-19.2 0-38.4 6.4-12.8 25.6-12.8 25.6 19.2 25.6 25.6 38.4-6.4 12.8-12.8 25.6 0 38.4s32 0 44.8 6.4c19.2-12.8 57.6 32 70.4 6.4 44.8 19.2 89.6-6.4 102.4-51.2s-12.8-89.6-51.2-102.4z" />
<glyph unicode="&#xe938;" glyph-name="find-career" d="M723.2 554.057c0 179.2-147.2 332.8-326.4 332.8 0 0 0 0 0 0-185.6-6.4-332.8-153.6-332.8-332.8s147.2-326.4 332.8-326.4c179.2-6.4 326.4 140.8 326.4 326.4zM396.8 285.257c-153.6 0-268.8 121.6-268.8 268.8s115.2 268.8 268.8 268.8c147.2 0 268.8-121.6 268.8-268.8-6.4-147.2-121.6-268.8-268.8-268.8zM947.2 16.457c-96-96-256 140.8-352 230.4 51.2 25.6 83.2 64 108.8 115.2 108.8-102.4 307.2-268.8 243.2-345.6zM569.6 438.857c-32-134.4-281.6-96-352-19.2 19.2 44.8 96 32 128 64-12.8 51.2-57.6 83.2-57.6 147.2-12.8 147.2 204.8 172.8 236.8 44.8 6.4-64-19.2-128-64-172.8 19.2-38.4 76.8-38.4 108.8-64z" />
</font>
</defs>
</svg>
